<?xml version="1.0" standalone="no"?>
<!DOCTYPE svg PUBLIC "-//W3C//DTD SVG 1.1//EN" "http://www.w3.org/Graphics/SVG/1.1/DTD/svg11.dtd" >
<svg xmlns="http://www.w3.org/2000/svg">
<metadata>Generated by IcoMoon</metadata>
<defs>
<font id="usergems-solid-icons" horiz-adv-x="1024">
<font-face units-per-em="1024" ascent="960" descent="-64" />
<missing-glyph horiz-adv-x="1024" />
<glyph unicode="&#x20;" horiz-adv-x="512" d="" />
<glyph unicode="&#xe900;" glyph-name="globe-02" d="M747.093 871.424c16.683 16.683 43.691 16.683 60.373 0 174.933-174.933 174.933-458.581 0-633.557-71.168-71.168-160.299-113.365-252.8-126.635v-47.232h170.667c23.552 0 42.667-19.115 42.667-42.667s-19.115-42.667-42.667-42.667h-426.667c-23.552 0-42.667 19.115-42.667 42.667s19.115 42.667 42.667 42.667h170.667v43.179c-94.123 4.437-187.093 38.443-263.851 101.931l-61.781-61.739c-16.64-16.683-43.648-16.683-60.331 0-16.64 16.64-16.64 43.691 0 60.331l168.107 168.107c-37.376 49.835-59.477 111.787-59.477 178.859 0 164.949 133.717 298.667 298.667 298.667s298.667-133.717 298.667-298.667c0-164.949-133.717-298.667-298.667-298.667-67.072 0-129.024 22.101-178.859 59.477l-45.653-45.696c142.336-112.469 349.525-102.997 480.939 28.416 141.653 141.653 141.653 371.285 0 512.896-16.64 16.683-16.64 43.691 0 60.331z" />
<glyph unicode="&#xe901;" glyph-name="globe-01" d="M825.131 889.131c-16.683 16.64-43.691 16.64-60.373 0-16.64-16.683-16.64-43.691 0-60.331 174.891-174.891 174.976-458.368 0.256-633.344-0.085-0.085-0.171-0.171-0.256-0.213-164.736-164.779-425.984-174.379-601.941-28.757l60.672 60.672c61.739-48.725 139.733-77.824 224.512-77.824 200.277 0 362.667 162.389 362.667 362.667s-162.389 362.667-362.667 362.667c-200.277 0-362.667-162.389-362.667-362.667 0-84.779 29.099-162.731 77.824-224.512l-68.864-68.821c-3.541-3.584-7.936-7.936-11.477-12.16-4.224-5.077-9.557-12.501-12.629-22.699-4.011-13.312-3.499-28.16 1.408-41.173 3.669-9.643 9.173-16.555 13.824-21.461 3.755-3.925 8.277-7.893 11.819-10.965l0.725-0.64c209.493-182.528 527.403-174.165 726.912 25.088 0.085 0.043 0.171 0.128 0.256 0.213 208.256 208.299 208.256 545.963 0 754.261z" />
<glyph unicode="&#xe902;" glyph-name="colors" d="M573.824 395.52c-19.797-4.736-40.491-7.253-61.824-7.253-73.387 0-139.819 29.867-187.733 78.165-47.488 47.829-76.8 113.664-76.8 186.368 0 146.091 118.443 264.533 264.533 264.533s264.533-118.443 264.533-264.533c0-53.163-15.659-102.656-42.624-144.085-35.627-54.699-90.837-95.403-155.733-112.128-1.451-0.341-2.901-0.725-4.352-1.067zM646.315 329.643c64.725 26.923 119.595 72.747 157.781 130.517 6.571 9.941 9.856 14.933 14.080 17.408 3.669 2.176 8.107 3.243 12.331 2.944 4.864-0.341 9.045-2.731 17.408-7.467 79.701-45.611 133.419-131.499 133.419-229.845 0-146.091-118.443-264.533-264.533-264.533-37.888 0-73.856 7.936-106.411 22.272-10.709 4.693-16.085 7.040-19.456 11.648-2.901 3.925-4.395 9.088-4.096 13.952 0.341 5.717 4.395 11.776 12.416 23.936 33.792 51.157 54.528 111.659 57.472 176.853 0.213 4.907 0.341 9.899 0.341 14.891v0.981c0 26.069-2.859 51.499-8.277 76.032-0.768 3.456-1.621 6.955-2.475 10.411zM176.085 473.045c8.363 4.736 12.501 7.125 17.408 7.467 4.224 0.299 8.661-0.768 12.331-2.944 4.224-2.475 7.509-7.467 14.080-17.408 62.592-94.72 170.027-157.227 292.096-157.227 17.707 0 35.072 1.323 52.053 3.84l0.256-1.109c4.864-20.011 7.424-40.917 7.424-62.464v-0.896c0-3.627-0.085-7.168-0.256-10.752-6.101-140.672-122.069-252.885-264.277-252.885-146.091 0-264.533 118.443-264.533 264.533 0 98.347 53.717 184.235 133.419 229.845z" />
<glyph unicode="&#xe903;" glyph-name="zoom-out" d="M469.333 874.667c212.096 0 384-171.904 384-384 0-90.667-31.403-173.995-83.968-239.701l156.8-156.8c16.64-16.64 16.64-43.648 0-60.331-16.683-16.64-43.691-16.64-60.331 0l-156.8 156.8c-65.707-52.565-149.035-83.968-239.701-83.968-212.096 0-384 171.904-384 384s171.904 384 384 384zM341.333 533.333c-23.552 0-42.667-19.115-42.667-42.667s19.115-42.667 42.667-42.667h256c23.552 0 42.667 19.115 42.667 42.667s-19.115 42.667-42.667 42.667z" />
<glyph unicode="&#xe904;" glyph-name="zoom-in" d="M469.333 874.667c212.096 0 384-171.904 384-384 0-90.667-31.403-173.995-83.968-239.701l156.8-156.8c16.64-16.64 16.64-43.648 0-60.331-16.683-16.64-43.691-16.64-60.331 0l-156.8 156.8c-65.707-52.565-149.035-83.968-239.701-83.968-212.096 0-384 171.904-384 384s171.904 384 384 384zM469.333 661.333c-23.552 0-42.667-19.115-42.667-42.667v-85.333h-85.333c-23.552 0-42.667-19.115-42.667-42.667s19.115-42.667 42.667-42.667h85.333v-85.333c0-23.552 19.115-42.667 42.667-42.667s42.667 19.115 42.667 42.667v85.333h85.333c23.552 0 42.667 19.115 42.667 42.667s-19.115 42.667-42.667 42.667h-85.333v85.333c0 23.552-19.115 42.667-42.667 42.667z" />
<glyph unicode="&#xe905;" glyph-name="underline-square" d="M692.949 874.667v0c34.347 0 62.72 0 85.803-1.877 23.979-1.963 46.037-6.187 66.731-16.725 32.128-16.341 58.24-42.453 74.581-74.581 10.539-20.693 14.763-42.752 16.725-66.731 1.877-23.083 1.877-51.456 1.877-85.803v-361.899c0-34.347 0-62.72-1.877-85.803-1.963-23.979-6.187-46.037-16.725-66.731-16.341-32.128-42.453-58.24-74.581-74.581-20.693-10.539-42.752-14.763-66.731-16.725-23.083-1.877-51.456-1.877-85.803-1.877h-361.899c-34.347 0-62.72 0-85.803 1.877-23.979 1.963-46.037 6.187-66.731 16.725-32.128 16.341-58.24 42.453-74.581 74.581-10.539 20.693-14.763 42.752-16.725 66.731-1.877 23.083-1.877 51.456-1.877 85.803v361.899c0 34.347 0 62.72 1.877 85.803 1.963 23.979 6.187 46.037 16.725 66.731 16.341 32.128 42.453 58.24 74.581 74.581 20.693 10.539 42.752 14.763 66.731 16.725 23.083 1.877 51.456 1.877 85.803 1.877h361.899zM405.333 661.333c0 23.552-19.115 42.667-42.667 42.667s-42.667-19.115-42.667-42.667v-149.333c0-106.027 85.973-192 192-192s192 85.973 192 192v149.333c0 23.552-19.115 42.667-42.667 42.667s-42.667-19.115-42.667-42.667v-149.333c0-58.923-47.744-106.667-106.667-106.667s-106.667 47.744-106.667 106.667zM341.333 277.333c-23.552 0-42.667-19.115-42.667-42.667s19.115-42.667 42.667-42.667h341.333c23.552 0 42.667 19.115 42.667 42.667s-19.115 42.667-42.667 42.667z" />
<glyph unicode="&#xe906;" glyph-name="underline-02" d="M85.333 789.333c0 23.552 19.115 42.667 42.667 42.667h320c23.552 0 42.667-19.115 42.667-42.667s-19.115-42.667-42.667-42.667h-42.667v-213.333c0-115.371 76.331-212.992 181.333-244.949 104.96 31.957 181.333 129.536 181.333 244.949v213.333h-42.667c-23.552 0-42.667 19.115-42.667 42.667s19.115 42.667 42.667 42.667h170.667c23.552 0 42.667-19.115 42.667-42.667s-19.115-42.667-42.667-42.667h-42.667v-213.333c0-188.501-152.832-341.333-341.333-341.333s-341.333 152.832-341.333 341.333v213.333h-42.667c-23.552 0-42.667 19.115-42.667 42.667zM128 64c0 23.552 19.115 42.667 42.667 42.667h682.667c23.552 0 42.667-19.115 42.667-42.667s-19.115-42.667-42.667-42.667h-682.667c-23.552 0-42.667 19.115-42.667 42.667z" />
<glyph unicode="&#xe907;" glyph-name="underline-01" d="M128 64c0 23.552 19.115 42.667 42.667 42.667h682.667c23.552 0 42.667-19.115 42.667-42.667s-19.115-42.667-42.667-42.667h-682.667c-23.552 0-42.667 19.115-42.667 42.667zM256 832c23.552 0 42.667-19.115 42.667-42.667v-298.667c0-117.803 95.531-213.333 213.333-213.333s213.333 95.531 213.333 213.333v298.667c0 23.552 19.115 42.667 42.667 42.667s42.667-19.115 42.667-42.667v-298.667c0-164.949-133.717-298.667-298.667-298.667s-298.667 133.717-298.667 298.667v298.667c0 23.552 19.115 42.667 42.667 42.667z" />
<glyph unicode="&#xe908;" glyph-name="type-strikethrough-02" d="M97.835 862.165c16.64 16.683 43.691 16.683 60.331 0l768-768c16.683-16.64 16.683-43.691 0-60.331-16.64-16.683-43.691-16.683-60.331 0l-236.501 236.501v-121.003h53.333c23.552 0 42.667-19.115 42.667-42.667s-19.115-42.667-42.667-42.667h-341.333c-23.552 0-42.667 19.115-42.667 42.667s19.115 42.667 42.667 42.667h53.333v355.669l-181.333 181.333v-25.003c0-23.552-19.115-42.667-42.667-42.667s-42.667 19.115-42.667 42.667v42.667c0 19.755 4.48 38.485 12.501 55.168l-42.667 42.667c-16.683 16.64-16.683 43.691 0 60.331zM629.333 511.701v234.965h96c20.48 0 33.664-0.043 43.776-0.725 9.728-0.64 13.44-1.792 15.232-2.517 10.453-4.352 18.731-12.629 23.083-23.083 0.725-1.792 1.877-5.504 2.517-15.232 0.725-10.112 0.725-23.296 0.725-43.776 0-23.552 19.115-42.667 42.667-42.667s42.667 19.115 42.667 42.667v1.365c0 18.731 0 34.859-0.896 48.213-0.981 14.080-3.072 28.16-8.832 42.069-13.013 31.36-37.931 56.277-69.291 69.291-13.909 5.76-27.989 7.851-42.069 8.832-13.355 0.896-29.483 0.896-48.213 0.896h-417.664l85.333-85.333h0.299v-0.299l234.667-234.667z" />
<glyph unicode="&#xe909;" glyph-name="type-strikethrough-01" d="M97.835 862.165c16.64 16.683 43.691 16.683 60.331 0l768-768c16.683-16.64 16.683-43.691 0-60.331-16.64-16.683-43.691-16.683-60.331 0l-311.168 311.168v-195.669h85.333c23.552 0 42.667-19.115 42.667-42.667s-19.115-42.667-42.667-42.667h-256c-23.552 0-42.667 19.115-42.667 42.667s19.115 42.667 42.667 42.667h85.333v281.003l-256 256v-25.003c0-23.552-19.115-42.667-42.667-42.667s-42.667 19.115-42.667 42.667v42.667c0 19.755 4.48 38.485 12.501 55.168l-42.667 42.667c-16.683 16.64-16.683 43.691 0 60.331zM769.109 745.941c-10.112 0.683-23.296 0.725-43.776 0.725h-170.667v-64c0-23.552-19.115-42.667-42.667-42.667s-42.667 19.115-42.667 42.667v64h-64c-23.552 0-42.667 19.115-42.667 42.667s19.115 42.667 42.667 42.667h321.365c18.731 0 34.859 0 48.213-0.896 14.080-0.981 28.16-3.072 42.069-8.832 31.36-13.013 56.277-37.931 69.291-69.291 5.76-13.909 7.851-27.989 8.832-42.069 0.896-13.355 0.896-29.483 0.896-48.213v-1.365c0-23.552-19.115-42.667-42.667-42.667s-42.667 19.115-42.667 42.667c0 20.48 0 33.664-0.725 43.776-0.64 9.728-1.792 13.44-2.517 15.232-4.352 10.453-12.629 18.731-23.083 23.083-1.792 0.725-5.504 1.877-15.232 2.517z" />
<glyph unicode="&#xe90a;" glyph-name="type-square" d="M692.949 874.667v0c34.347 0 62.72 0 85.803-1.877 23.979-1.963 46.037-6.187 66.731-16.725 32.128-16.341 58.24-42.453 74.581-74.581 10.539-20.693 14.763-42.752 16.725-66.731 1.877-23.083 1.877-51.456 1.877-85.803v-361.899c0-34.347 0-62.72-1.877-85.803-1.963-23.979-6.187-46.037-16.725-66.731-16.341-32.128-42.453-58.24-74.581-74.581-20.693-10.539-42.752-14.763-66.731-16.725-23.083-1.877-51.456-1.877-85.803-1.877h-361.899c-34.347 0-62.72 0-85.803 1.877-23.979 1.963-46.037 6.187-66.731 16.725-32.128 16.341-58.24 42.453-74.581 74.581-10.539 20.693-14.763 42.752-16.725 66.731-1.877 23.083-1.877 51.456-1.877 85.803v361.899c0 34.347 0 62.72 1.877 85.803 1.963 23.979 6.187 46.037 16.725 66.731 16.341 32.128 42.453 58.24 74.581 74.581 20.693 10.539 42.752 14.763 66.731 16.725 23.083 1.877 51.456 1.877 85.803 1.877h361.899zM298.667 661.333c0-23.552 19.115-42.667 42.667-42.667h128v-384c0-23.552 19.115-42.667 42.667-42.667s42.667 19.115 42.667 42.667v384h128c23.552 0 42.667 19.115 42.667 42.667s-19.115 42.667-42.667 42.667h-341.333c-23.552 0-42.667-19.115-42.667-42.667z" />
<glyph unicode="&#xe90b;" glyph-name="type-02" d="M726.699 832v0c18.731 0 34.859 0 48.213-0.896 14.080-0.981 28.16-3.072 42.069-8.832 31.36-13.013 56.277-37.931 69.291-69.291 5.76-13.909 7.851-27.989 8.832-42.069 0.896-13.355 0.896-29.483 0.896-48.213v-1.365c0-23.552-19.115-42.667-42.667-42.667s-42.667 19.115-42.667 42.667c0 20.48 0 33.664-0.725 43.776-0.64 9.728-1.792 13.44-2.517 15.232-4.352 10.453-12.629 18.731-23.083 23.083-1.792 0.725-5.504 1.877-15.232 2.517-10.112 0.683-23.296 0.725-43.776 0.725h-96v-597.333h53.333c23.552 0 42.667-19.115 42.667-42.667s-19.115-42.667-42.667-42.667h-341.333c-23.552 0-42.667 19.115-42.667 42.667s19.115 42.667 42.667 42.667h53.333v597.333h-96c-20.48 0-33.664-0.043-43.776-0.725-9.728-0.64-13.44-1.792-15.232-2.517-10.453-4.352-18.731-12.629-23.083-23.083-0.725-1.792-1.877-5.504-2.517-15.232-0.683-10.112-0.725-23.296-0.725-43.776 0-23.552-19.115-42.667-42.667-42.667s-42.667 19.115-42.667 42.667v1.365c0 18.731 0 34.859 0.896 48.213 0.981 14.080 3.072 28.16 8.832 42.069 13.013 31.36 37.931 56.277 69.291 69.291 13.909 5.76 27.989 7.851 42.069 8.832 13.355 0.896 29.483 0.896 48.213 0.896h429.397z" />
<glyph unicode="&#xe90c;" glyph-name="type-01" d="M726.699 832v0c18.731 0 34.859 0 48.213-0.896 14.080-0.981 28.16-3.072 42.069-8.832 31.36-13.013 56.277-37.931 69.291-69.291 5.76-13.909 7.851-27.989 8.832-42.069 0.896-13.355 0.896-29.483 0.896-48.213v-1.365c0-23.552-19.115-42.667-42.667-42.667s-42.667 19.115-42.667 42.667c0 20.48 0 33.664-0.725 43.776-0.64 9.728-1.792 13.44-2.517 15.232-4.352 10.453-12.629 18.731-23.083 23.083-1.792 0.725-5.504 1.877-15.232 2.517-10.112 0.683-23.296 0.725-43.776 0.725h-170.667v-597.333h85.333c23.552 0 42.667-19.115 42.667-42.667s-19.115-42.667-42.667-42.667h-256c-23.552 0-42.667 19.115-42.667 42.667s19.115 42.667 42.667 42.667h85.333v597.333h-170.667c-20.48 0-33.664-0.043-43.776-0.725-9.728-0.64-13.44-1.792-15.232-2.517-10.453-4.352-18.731-12.629-23.083-23.083-0.725-1.792-1.877-5.504-2.517-15.232-0.683-10.112-0.725-23.296-0.725-43.776 0-23.552-19.115-42.667-42.667-42.667s-42.667 19.115-42.667 42.667v1.365c0 18.731 0 34.859 0.896 48.213 0.981 14.080 3.072 28.16 8.832 42.069 13.013 31.36 37.931 56.277 69.291 69.291 13.909 5.76 27.989 7.851 42.069 8.832 13.355 0.896 29.483 0.896 48.213 0.896h429.397z" />
<glyph unicode="&#xe90d;" glyph-name="trophy-02" d="M299.776 874.667h424.448c9.984 0 19.669 0 27.904-0.64 9.045-0.683 19.712-2.261 30.592-7.339 18.176-8.491 32.811-23.125 41.301-41.301 5.077-10.88 6.656-21.547 7.339-30.592 0.64-8.192 0.64-17.835 0.64-27.691v-255.104c0-162.261-120.789-296.32-277.333-317.184v-88.149h170.667c23.552 0 42.667-19.115 42.667-42.667s-19.115-42.667-42.667-42.667h-426.667c-23.552 0-42.667 19.115-42.667 42.667s19.115 42.667 42.667 42.667h170.667v88.149c-156.544 20.864-277.333 154.923-277.333 317.184v254.891c0 9.984 0 19.669 0.64 27.904 0.683 9.045 2.261 19.712 7.339 30.592 8.491 18.176 23.125 32.811 41.301 41.301 10.88 5.077 21.547 6.656 30.592 7.339 8.235 0.64 17.92 0.64 27.904 0.64zM85.333 789.333c23.552 0 42.667-19.115 42.667-42.667v-213.333c0-23.552-19.115-42.667-42.667-42.667s-42.667 19.115-42.667 42.667v213.333c0 23.552 19.115 42.667 42.667 42.667zM938.667 789.333c23.552 0 42.667-19.115 42.667-42.667v-213.333c0-23.552-19.115-42.667-42.667-42.667s-42.667 19.115-42.667 42.667v213.333c0 23.552 19.115 42.667 42.667 42.667z" />
<glyph unicode="&#xe90e;" glyph-name="trophy-01" d="M317.611 917.333h392.619c13.355 0.043 29.781 0.128 44.288-5.163 23.723-8.619 42.368-27.264 50.987-50.987 3.413-9.387 4.608-19.541 4.992-29.184h65.323c8.96 0 17.664 0 25.088-0.512 8.149-0.555 17.749-1.835 27.733-5.973 20.907-8.661 37.547-25.301 46.208-46.208 4.139-9.984 5.419-19.584 5.973-27.733 0.512-7.424 0.512-16.128 0.512-25.131v-28.331c0-33.92 0.043-59.136-5.803-80.939-15.787-58.923-61.781-104.917-120.704-120.704-16.213-4.352-34.347-5.461-56.491-5.717-32.768-110.208-127.445-193.749-243.669-210.389v-45.696h18.944c107.349 0 194.389-87.040 194.389-194.389 0-34.005-27.605-61.611-61.611-61.611h-388.779c-34.005 0-61.611 27.605-61.611 61.611 0 107.349 87.040 194.389 194.389 194.389h18.944v45.696c-116.224 16.64-210.901 100.181-243.669 210.389-22.144 0.256-40.277 1.365-56.491 5.717-58.923 15.787-104.917 61.781-120.704 120.704-5.845 21.803-5.803 47.019-5.803 80.939v28.331c0 9.003 0 17.707 0.512 25.131 0.555 8.149 1.835 17.749 5.973 27.733 8.661 20.907 25.301 37.547 46.208 46.208 9.984 4.139 19.584 5.419 27.733 5.973 7.424 0.512 16.171 0.512 25.131 0.512h65.28c0.384 9.643 1.579 19.797 4.992 29.184 8.619 23.723 27.264 42.368 50.987 50.987 14.507 5.291 30.933 5.205 44.331 5.163zM213.333 712.533c0 11.947 0 17.92-2.304 22.485-2.048 4.011-5.333 7.296-9.344 9.301-4.565 2.347-10.539 2.347-22.485 2.347h-19.456c-11.307 0-16.939 0-21.376-2.176-3.84-1.877-7.168-5.035-9.259-8.789-2.389-4.309-2.688-9.771-3.243-20.693-1.365-25.728-1.195-52.395 5.035-75.776 7.893-29.44 30.891-52.437 60.331-60.331 5.077-1.365 11.093-2.091 22.101-2.475zM810.667 712.405v-135.979c11.008 0.384 17.024 1.109 22.101 2.475 29.44 7.893 52.437 30.891 60.331 60.331 6.059 22.613 6.059 49.792 4.693 75.563-0.597 10.88-0.853 16.341-3.243 20.651-2.091 3.712-5.376 6.869-9.216 8.747-4.437 2.176-10.027 2.219-21.291 2.261l-19.115 0.085c-11.989 0.043-17.963 0.043-22.571-2.261-4.011-2.048-7.296-5.291-9.344-9.344-2.347-4.565-2.347-10.539-2.347-22.528z" />
<glyph unicode="&#xe90f;" glyph-name="transform" d="M194.901 874.667h36.864c10.752 0 21.248 0 30.123-0.725 9.771-0.811 21.291-2.688 32.853-8.576 16.043-8.192 29.099-21.248 37.291-37.291 5.888-11.563 7.765-23.083 8.576-32.853 0.171-1.877 0.299-3.84 0.384-5.888h342.016c0.085 2.048 0.213 4.011 0.384 5.888 0.811 9.771 2.688 21.291 8.576 32.853 8.192 16.043 21.248 29.099 37.291 37.291 11.563 5.888 23.083 7.765 32.853 8.576 8.875 0.725 19.371 0.725 30.123 0.725h36.864c10.752 0 21.248 0 30.123-0.725 9.771-0.811 21.291-2.688 32.853-8.576 16.043-8.192 29.099-21.248 37.291-37.291 5.888-11.563 7.765-23.083 8.576-32.853 0.725-8.832 0.725-19.243 0.725-29.952v-37.205c0-10.709 0-21.12-0.725-29.952-0.811-9.771-2.688-21.291-8.576-32.853-8.192-16.043-21.248-29.099-37.291-37.291-11.563-5.888-23.083-7.765-32.853-8.576-1.877-0.171-3.84-0.299-5.888-0.384v-342.016c2.048-0.085 4.011-0.213 5.888-0.384 9.771-0.811 21.291-2.688 32.853-8.576 16.043-8.192 29.099-21.248 37.291-37.291 5.888-11.563 7.765-23.083 8.576-32.853 0.725-8.832 0.725-19.243 0.725-29.952v-37.205c0-10.709 0-21.12-0.725-29.952-0.811-9.771-2.688-21.291-8.576-32.853-8.192-16.043-21.248-29.099-37.291-37.291-11.563-5.888-23.083-7.765-32.853-8.576-8.832-0.725-19.243-0.725-29.952-0.725h-37.205c-10.709 0-21.12 0-29.952 0.725-9.771 0.811-21.291 2.688-32.853 8.576-16.043 8.192-29.099 21.248-37.291 37.291-5.888 11.563-7.765 23.083-8.576 32.853-0.171 1.877-0.299 3.84-0.384 5.888h-342.016c-0.085-2.048-0.213-4.011-0.384-5.888-0.811-9.771-2.688-21.291-8.576-32.853-8.192-16.043-21.248-29.099-37.291-37.291-11.563-5.888-23.083-7.765-32.853-8.576-8.832-0.725-19.243-0.725-29.952-0.725h-37.205c-10.709 0-21.12 0-29.952 0.725-9.771 0.811-21.291 2.688-32.853 8.576-16.043 8.192-29.099 21.248-37.291 37.291-5.888 11.563-7.765 23.083-8.576 32.853-0.725 8.875-0.725 19.371-0.725 30.123v36.864c0 10.752 0 21.248 0.725 30.123 0.811 9.771 2.688 21.291 8.576 32.853 8.192 16.043 21.248 29.099 37.291 37.291 11.563 5.888 23.083 7.765 32.853 8.576 1.877 0.171 3.84 0.299 5.888 0.384v342.016c-2.048 0.085-4.011 0.213-5.888 0.384-9.771 0.811-21.291 2.688-32.853 8.576-16.043 8.192-29.099 21.248-37.291 37.291-5.888 11.563-7.765 23.083-8.576 32.853-0.725 8.875-0.725 19.371-0.725 30.123v36.864c0 10.752 0 21.248 0.725 30.123 0.811 9.771 2.688 21.291 8.576 32.853 8.192 16.043 21.248 29.099 37.291 37.291 11.563 5.888 23.083 7.765 32.853 8.576 8.875 0.725 19.371 0.725 30.123 0.725zM768 276.992v342.016c-2.048 0.085-4.011 0.213-5.888 0.384-9.771 0.811-21.291 2.688-32.853 8.576-16.043 8.192-29.099 21.248-37.291 37.291-5.888 11.563-7.765 23.083-8.576 32.853-0.171 1.877-0.299 3.84-0.384 5.888h-342.016c-0.085-2.048-0.213-4.011-0.384-5.888-0.811-9.771-2.688-21.291-8.576-32.853-8.192-16.043-21.248-29.099-37.291-37.291-11.563-5.888-23.083-7.765-32.853-8.576-1.877-0.171-3.84-0.299-5.888-0.384v-342.016c2.048-0.085 4.011-0.213 5.888-0.384 9.771-0.811 21.291-2.688 32.853-8.576 16.043-8.192 29.099-21.248 37.291-37.291 5.888-11.563 7.765-23.083 8.576-32.853 0.171-1.877 0.299-3.84 0.384-5.888h342.016c0.085 2.048 0.213 4.011 0.384 5.888 0.811 9.771 2.688 21.291 8.576 32.853 8.192 16.043 21.248 29.099 37.291 37.291 11.563 5.888 23.083 7.765 32.853 8.576 1.877 0.171 3.84 0.299 5.888 0.384z" />
<glyph unicode="&#xe910;" glyph-name="text-input" d="M682.667 789.333h-64c-23.552 0-42.667 19.115-42.667 42.667s19.115 42.667 42.667 42.667h213.333c23.552 0 42.667-19.115 42.667-42.667s-19.115-42.667-42.667-42.667h-64v-85.333h35.755c22.528 0 41.899 0 57.899-1.323 16.853-1.365 33.664-4.395 49.792-12.629 24.107-12.288 43.648-31.872 55.936-55.936 8.235-16.128 11.264-32.939 12.629-49.792 1.323-16 1.323-35.371 1.323-57.856v-156.928c0-22.485 0-41.899-1.323-57.856-1.365-16.853-4.395-33.664-12.629-49.792-12.288-24.107-31.829-43.648-55.936-55.936-16.128-8.235-32.939-11.264-49.792-12.629-16-1.323-35.371-1.323-57.856-1.323h-35.797v-85.333h64c23.552 0 42.667-19.115 42.667-42.667s-19.115-42.667-42.667-42.667h-213.333c-23.552 0-42.667 19.115-42.667 42.667s19.115 42.667 42.667 42.667h64zM220.203 704h334.464c23.552 0 42.667-19.115 42.667-42.667v-426.667c0-23.552-19.115-42.667-42.667-42.667h-334.464c-22.485 0-41.899 0-57.856 1.323-16.853 1.365-33.664 4.395-49.792 12.629-24.064 12.288-43.648 31.829-55.936 55.936-8.235 16.128-11.264 32.939-12.629 49.792-1.323 16-1.323 35.371-1.323 57.856v156.885c0 22.528 0 41.899 1.323 57.899 1.365 16.853 4.395 33.664 12.629 49.792 12.288 24.064 31.872 43.648 55.936 55.936 16.128 8.235 32.939 11.264 49.792 12.629 16 1.323 35.371 1.323 57.856 1.323z" />
<glyph unicode="&#xe911;" glyph-name="telescope" d="M858.453 888.491c6.144 1.109 15.019 2.133 25.259 0 13.184-2.816 25.216-9.771 34.219-19.797 6.997-7.765 10.539-16 12.629-21.845 1.835-5.035 3.413-10.923 4.693-15.829l60.16-224.469c1.323-4.907 2.901-10.752 3.84-16.043 1.109-6.101 2.176-15.019 0-25.216-2.816-13.227-9.728-25.216-19.797-34.261-7.723-6.997-15.957-10.539-21.845-12.629-5.035-1.792-10.88-3.371-15.787-4.693l-2.56-0.683c-21.717-5.803-40.448-10.837-56.235-13.696-16.64-3.029-33.664-4.437-51.371-0.683-15.573 3.328-30.293 9.472-43.477 18.091l-171.691-45.995c14.805-20.907 23.509-46.421 23.509-73.941 0-28.331-9.216-54.485-24.747-75.691l187.989-275.755c13.269-19.456 8.277-45.995-11.221-59.264-19.456-13.312-45.995-8.277-59.264 11.221l-187.989 275.712c-10.453-2.773-21.461-4.224-32.768-4.224s-22.315 1.451-32.768 4.224l-187.989-275.712c-13.269-19.499-39.808-24.533-59.264-11.221-19.499 13.269-24.491 39.808-11.221 59.264l187.989 275.755c-15.573 21.205-24.747 47.36-24.747 75.691 0 3.968 0.171 7.893 0.512 11.776l-90.325-24.235c-4.907-1.323-10.795-2.859-16.085-3.84-6.101-1.109-15.019-2.133-25.216 0-13.227 2.816-25.216 9.728-34.261 19.797-1.963 2.176-3.669 4.437-5.12 6.613l-54.016-14.464c-4.907-1.323-10.752-2.901-16.043-3.84-6.101-1.109-15.019-2.176-25.216 0-13.227 2.816-25.216 9.728-34.261 19.797-6.997 7.723-10.539 15.957-12.629 21.845-1.835 5.035-3.371 10.88-4.693 15.829l-15.957 59.563c-1.323 4.949-2.901 10.795-3.883 16.085-1.109 6.101-2.133 15.019 0.043 25.216 2.773 13.227 9.728 25.216 19.755 34.261 7.765 6.997 16 10.539 21.845 12.629 5.035 1.792 10.923 3.371 15.829 4.693l54.016 14.464c0.171 2.645 0.512 5.419 1.109 8.277 2.816 13.227 9.771 25.216 19.797 34.261 7.765 6.997 16 10.539 21.845 12.629 5.035 1.792 10.923 3.371 15.829 4.693l494.037 132.352c7.083 14.037 16.768 26.752 28.587 37.419 13.44 12.117 28.885 19.371 44.8 25.088 15.104 5.419 33.835 10.411 55.595 16.256l2.517 0.683c4.907 1.28 10.795 2.859 16.043 3.84zM855.296 799.744c-19.157-5.163-32.213-8.789-42.24-12.373-10.965-3.925-14.72-6.571-16.469-8.192-6.699-6.016-11.307-13.995-13.184-22.827-0.469-2.304-0.939-6.869 1.152-18.304 2.176-11.947 6.272-27.307 12.629-51.072l6.613-24.704c6.357-23.765 10.496-39.125 14.592-50.517 3.925-10.965 6.571-14.677 8.149-16.469 6.059-6.699 14.037-11.307 22.869-13.184 2.304-0.469 6.869-0.939 18.304 1.152 10.496 1.92 23.637 5.291 42.795 10.411z" />
<glyph unicode="&#xe912;" glyph-name="subscript" d="M97.835 776.832c16.64 16.683 43.691 16.683 60.331 0l183.168-183.168 183.168 183.168c16.64 16.683 43.691 16.683 60.331 0 16.683-16.64 16.683-43.691 0-60.331l-183.168-183.168 183.168-183.168c16.683-16.64 16.683-43.691 0-60.331-16.64-16.683-43.691-16.683-60.331 0l-183.168 183.168-183.168-183.168c-16.64-16.683-43.691-16.683-60.331 0-16.683 16.64-16.683 43.691 0 60.331l183.168 183.168-183.168 183.168c-16.683 16.64-16.683 43.691 0 60.331zM830.037 488.96c-29.995 5.077-60.843-0.384-87.296-15.317l-0.171-0.128c-26.624-15.189-47.147-39.424-57.429-68.395-7.893-22.187 3.712-46.592 25.899-54.485s46.592 3.712 54.485 25.899c3.328 9.387 10.112 17.579 19.285 22.869 9.429 5.291 20.395 7.211 31.061 5.419 10.624-1.792 20.309-7.125 27.477-15.147 6.485-7.595 9.984-17.28 9.984-27.008 0-10.581-4.949-20.907-20.437-33.365-16.341-13.141-38.101-23.552-61.781-34.688-24.747-11.691-49.621-26.581-66.56-52.779-16.853-26.069-21.888-57.131-21.888-92.501 0-23.552 19.115-42.667 42.667-42.667h170.667c23.552 0 42.667 19.115 42.667 42.667s-19.115 42.667-42.667 42.667h-121.728c0.64 1.365 1.28 2.517 1.92 3.499 3.755 5.803 10.88 12.288 31.36 21.931l2.389 1.109c21.461 10.112 51.669 24.363 76.416 44.288 26.539 21.333 52.309 53.675 52.309 99.84 0 30.293-10.923 59.776-30.805 82.901l-0.341 0.384c-20.139 22.784-47.488 37.973-77.483 43.008z" />
<glyph unicode="&#xe913;" glyph-name="strikethrough-square" d="M692.949 874.667v0c34.347 0 62.72 0 85.803-1.877 23.979-1.963 46.037-6.187 66.731-16.725 32.128-16.341 58.24-42.453 74.581-74.581 10.539-20.693 14.763-42.752 16.725-66.731 1.877-23.083 1.877-51.456 1.877-85.803v-361.899c0-34.347 0-62.72-1.877-85.803-1.963-23.979-6.187-46.037-16.725-66.731-16.341-32.128-42.453-58.24-74.581-74.581-20.693-10.539-42.752-14.763-66.731-16.725-23.083-1.877-51.456-1.877-85.803-1.877h-361.899c-34.347 0-62.72 0-85.803 1.877-23.979 1.963-46.037 6.187-66.731 16.725-32.128 16.341-58.24 42.453-74.581 74.581-10.539 20.693-14.763 42.752-16.725 66.731-1.877 23.083-1.877 51.456-1.877 85.803v361.899c0 34.347 0 62.72 1.877 85.803 1.963 23.979 6.187 46.037 16.725 66.731 16.341 32.128 42.453 58.24 74.581 74.581 20.693 10.539 42.752 14.763 66.731 16.725 23.083 1.877 51.456 1.877 85.803 1.877h361.899zM213.333 448c0-23.552 19.115-42.667 42.667-42.667h298.667c35.328 0 64-28.672 64-64s-28.672-64-64-64h-92.459c-24.192 0-44.971 15.104-53.163 36.565-8.405 22.016-33.067 33.024-55.083 24.619s-33.024-33.067-24.619-55.083c20.437-53.419 72.149-91.435 132.864-91.435h92.459c82.475 0 149.333 66.859 149.333 149.333 0 22.912-5.163 44.587-14.379 64h78.379c23.552 0 42.667 19.115 42.667 42.667s-19.115 42.667-42.667 42.667h-512c-23.552 0-42.667-19.115-42.667-42.667zM332.459 614.4c-9.472-21.589 0.384-46.72 22.016-56.149 21.589-9.429 46.72 0.427 56.149 22.016 9.941 22.656 32.512 38.4 58.709 38.4h92.459c24.192 0 44.928-15.104 53.163-36.565 8.405-22.016 33.067-33.024 55.083-24.619s33.024 33.067 24.619 55.083c-20.437 53.419-72.149 91.435-132.864 91.435h-92.459c-61.312 0-113.877-36.949-136.875-89.6z" />
<glyph unicode="&#xe914;" glyph-name="strikethrough-02" d="M426.667 832c-117.803 0-213.333-95.531-213.333-213.333 0-23.552 19.115-42.667 42.667-42.667h149.333c23.552 0 42.667 19.115 42.667 42.667 0 70.699 57.301 128 128 128h21.333c70.699 0 128-57.301 128-128 0-23.552 19.115-42.667 42.667-42.667s42.667 19.115 42.667 42.667c0 117.803-95.531 213.333-213.333 213.333h-170.667zM576 277.333c0 70.699-57.301 128-128 128h-320c-23.552 0-42.667 19.115-42.667 42.667s19.115 42.667 42.667 42.667h768c23.552 0 42.667-19.115 42.667-42.667s-19.115-42.667-42.667-42.667h-128c26.795-35.669 42.667-79.957 42.667-128 0-117.803-95.531-213.333-213.333-213.333h-170.667c-117.803 0-213.333 95.531-213.333 213.333 0 23.552 19.115 42.667 42.667 42.667s42.667-19.115 42.667-42.667c0-70.699 57.301-128 128-128h21.333c70.699 0 128 57.301 128 128z" />
<glyph unicode="&#xe915;" glyph-name="strikethrough-01" d="M213.333 618.667c0 117.803 95.531 213.333 213.333 213.333h170.667c117.803 0 213.333-95.531 213.333-213.333 0-23.552-19.115-42.667-42.667-42.667s-42.667 19.115-42.667 42.667c0 70.699-57.301 128-128 128h-170.667c-70.699 0-128-57.301-128-128 0-23.552-19.115-42.667-42.667-42.667s-42.667 19.115-42.667 42.667zM768 405.333h128c23.552 0 42.667 19.115 42.667 42.667s-19.115 42.667-42.667 42.667h-768c-23.552 0-42.667-19.115-42.667-42.667s19.115-42.667 42.667-42.667h469.333c70.699 0 128-57.301 128-128s-57.301-128-128-128h-170.667c-70.699 0-128 57.301-128 128 0 23.552-19.115 42.667-42.667 42.667s-42.667-19.115-42.667-42.667c0-117.803 95.531-213.333 213.333-213.333h170.667c117.803 0 213.333 95.531 213.333 213.333 0 48.043-15.872 92.331-42.667 128z" />
<glyph unicode="&#xe916;" glyph-name="stand" d="M512 917.333c23.552 0 42.667-19.115 42.667-42.667v-42.667h249.088c22.528 0 41.899 0 57.899-1.323 16.853-1.365 33.664-4.395 49.792-12.629 24.107-12.288 43.648-31.872 55.936-55.936 8.235-16.128 11.264-32.939 12.629-49.792 1.323-16 1.323-35.371 1.323-57.856v-284.928c0-22.485 0-41.856-1.323-57.856-1.365-16.853-4.395-33.664-12.629-49.792-12.288-24.107-31.829-43.648-55.936-55.936-16.128-8.235-32.939-11.264-49.792-12.629-16-1.323-35.371-1.323-57.856-1.323h-60.8l140.501-140.501c16.683-16.64 16.683-43.691 0-60.331-16.64-16.683-43.691-16.683-60.331 0l-200.832 200.832h-67.669v-170.667c0-23.552-19.115-42.667-42.667-42.667s-42.667 19.115-42.667 42.667v170.667h-67.669l-200.832-200.832c-16.64-16.683-43.691-16.683-60.331 0-16.683 16.64-16.683 43.691 0 60.331l140.501 140.501h-60.8c-22.485 0-41.856 0-57.856 1.323-16.853 1.365-33.664 4.395-49.792 12.629-24.064 12.288-43.648 31.829-55.936 55.936-8.235 16.128-11.264 32.939-12.629 49.792-1.323 16-1.323 35.371-1.323 57.856v284.928c0 22.485 0 41.856 1.323 57.856 1.365 16.853 4.395 33.664 12.629 49.792 12.288 24.064 31.872 43.648 55.936 55.936 16.128 8.235 32.939 11.264 49.792 12.629 16 1.323 35.371 1.323 57.856 1.323h249.131v42.667c0 23.552 19.115 42.667 42.667 42.667z" />
<glyph unicode="&#xe917;" glyph-name="skew" d="M237.568 874.667h36.864c10.752 0 21.248 0 30.123-0.725 9.771-0.811 21.291-2.688 32.853-8.576 16.043-8.192 29.099-21.248 37.291-37.291 5.888-11.563 7.765-23.083 8.576-32.853 0.171-1.877 0.299-3.84 0.384-5.888h342.016c0.085 2.048 0.213 4.011 0.384 5.888 0.811 9.771 2.688 21.291 8.576 32.853 8.192 16.043 21.248 29.099 37.291 37.291 11.563 5.888 23.083 7.765 32.853 8.576 8.875 0.725 19.371 0.725 30.123 0.725h36.864c10.752 0 21.248 0 30.123-0.725 9.771-0.811 21.291-2.688 32.853-8.576 16.043-8.192 29.099-21.248 37.291-37.291 5.888-11.563 7.765-23.083 8.576-32.853 0.725-8.832 0.725-19.243 0.725-29.952v-37.205c0-10.709 0-21.12-0.725-29.952-0.811-9.771-2.688-21.291-8.576-32.853-8.192-16.043-21.248-29.099-37.291-37.291-11.563-5.888-23.083-7.765-32.853-8.576-7.083-0.597-15.232-0.683-23.765-0.725l-49.067-343.723c6.485-1.28 13.397-3.371 20.352-6.912 16.043-8.192 29.099-21.248 37.291-37.291 5.888-11.563 7.765-23.083 8.576-32.853 0.725-8.832 0.725-19.243 0.725-29.952v-37.205c0-10.709 0-21.12-0.725-29.952-0.811-9.771-2.688-21.291-8.576-32.853-8.192-16.043-21.248-29.099-37.291-37.291-11.563-5.888-23.083-7.765-32.853-8.576-8.832-0.725-19.243-0.725-29.952-0.725h-37.205c-10.709 0-21.12 0-29.952 0.725-9.771 0.811-21.291 2.688-32.853 8.576-16.043 8.192-29.099 21.248-37.291 37.291-5.888 11.563-7.765 23.083-8.576 32.853-0.171 1.877-0.299 3.84-0.384 5.888h-342.016c-0.085-2.048-0.213-4.011-0.384-5.888-0.811-9.771-2.688-21.291-8.576-32.853-8.192-16.043-21.248-29.099-37.291-37.291-11.563-5.888-23.083-7.765-32.853-8.576-8.832-0.725-19.243-0.725-29.952-0.725h-37.205c-10.709 0-21.12 0-29.952 0.725-9.771 0.811-21.291 2.688-32.853 8.576-16.043 8.192-29.099 21.248-37.291 37.291-5.888 11.563-7.765 23.083-8.576 32.853-0.725 8.875-0.725 19.371-0.725 30.123v36.864c0 10.752 0 21.248 0.725 30.123 0.811 9.771 2.688 21.291 8.576 32.853 8.192 16.043 21.248 29.099 37.291 37.291 11.563 5.888 23.083 7.765 32.853 8.576 8.32 0.683 18.048 0.725 28.075 0.725l61.013 341.803c-1.28 0.085-2.517 0.171-3.755 0.256-9.771 0.811-21.291 2.688-32.853 8.576-16.043 8.192-29.099 21.248-37.291 37.291-5.888 11.563-7.765 23.083-8.576 32.853-0.725 8.875-0.725 19.371-0.725 30.123v36.864c0 10.752 0 21.248 0.725 30.123 0.811 9.771 2.688 21.291 8.576 32.853 8.192 16.043 21.248 29.099 37.291 37.291 11.563 5.888 23.083 7.765 32.853 8.576 8.875 0.725 19.371 0.725 30.123 0.725zM743.168 277.333l49.109 343.723c-6.528 1.28-13.44 3.371-20.352 6.912-16.043 8.192-29.099 21.248-37.291 37.291-5.888 11.563-7.765 23.083-8.576 32.853-0.171 1.877-0.299 3.84-0.384 5.888h-342.016c-0.085-2.048-0.213-4.011-0.384-5.888-0.811-9.771-2.688-21.291-8.576-32.853-8.192-16.043-21.248-29.099-37.291-37.291-11.563-5.888-23.083-7.765-32.853-8.576-2.133-0.171-4.352-0.299-6.699-0.427l-61.611-345.045c5.163-1.28 10.496-3.157 15.829-5.888 16.043-8.192 29.099-21.248 37.291-37.291 5.888-11.563 7.765-23.083 8.576-32.853 0.171-1.877 0.299-3.84 0.384-5.888h342.016c0.085 2.048 0.213 4.011 0.384 5.888 0.811 9.771 2.688 21.291 8.576 32.853 8.192 16.043 21.248 29.099 37.291 37.291 11.563 5.888 23.083 7.765 32.853 8.576 7.083 0.597 15.232 0.683 23.723 0.725z" />
<glyph unicode="&#xe918;" glyph-name="scissors-cut-02" d="M168.832 557.227c-50.005 29.781-83.499 84.352-83.499 146.773 0 94.251 76.416 170.667 170.667 170.667s170.667-76.416 170.667-170.667c0-59.904-30.848-112.597-77.525-143.061l127.829-65.067 399.659 203.477c20.992 10.709 46.72 2.347 57.387-18.688 10.709-20.992 2.347-46.677-18.645-57.344l-344.363-175.317 344.363-175.317c20.992-10.667 29.355-36.352 18.645-57.387-10.667-20.992-36.395-29.355-57.387-18.645l-399.659 203.477-127.829-65.109c46.677-30.421 77.525-83.115 77.525-143.019 0-94.251-76.416-170.667-170.667-170.667s-170.667 76.416-170.667 170.667c0 62.421 33.493 116.992 83.499 146.773 1.152 0.725 2.347 1.408 3.541 2.048 4.139 2.304 8.363 4.48 12.715 6.443l197.845 100.736-197.845 100.736c-4.352 1.963-8.576 4.139-12.672 6.443-1.237 0.64-2.432 1.323-3.584 2.048zM213.205 265.856c-25.429-14.805-42.539-42.325-42.539-73.856 0-47.147 38.187-85.333 85.333-85.333s85.333 38.187 85.333 85.333c0 47.147-38.187 85.333-85.333 85.333-12.245 0-23.893-2.56-34.389-7.211zM170.667 704c0-31.531 17.109-59.051 42.539-73.856l8.363-4.267c10.539-4.651 22.187-7.211 34.432-7.211 47.147 0 85.333 38.187 85.333 85.333s-38.187 85.333-85.333 85.333c-47.147 0-85.333-38.187-85.333-85.333zM704 448c0 23.552 19.115 42.667 42.667 42.667h0.427c23.552 0 42.667-19.115 42.667-42.667s-19.115-42.667-42.667-42.667h-0.427c-23.552 0-42.667 19.115-42.667 42.667zM938.667 490.667c-23.552 0-42.667-19.115-42.667-42.667s19.115-42.667 42.667-42.667h0.427c23.552 0 42.667 19.115 42.667 42.667s-19.115 42.667-42.667 42.667h-0.427z" />
<glyph unicode="&#xe919;" glyph-name="scissors-cut-01" d="M256 874.667c94.251 0 170.667-76.416 170.667-170.667 0-31.659-8.619-61.269-23.637-86.699l108.971-108.971 311.168 311.168c16.64 16.683 43.691 16.683 60.331 0 16.683-16.64 16.683-43.691 0-60.331l-311.168-311.168 311.168-311.168c16.683-16.64 16.683-43.691 0-60.331-16.64-16.683-43.691-16.683-60.331 0l-311.168 311.168-108.971-108.971c15.019-25.387 23.637-55.040 23.637-86.699 0-94.251-76.416-170.667-170.667-170.667s-170.667 76.416-170.667 170.667c0 94.251 76.416 170.667 170.667 170.667 31.659 0 61.269-8.619 86.699-23.637l108.971 108.971-108.971 108.971c-25.429-15.019-55.040-23.637-86.699-23.637-94.251 0-170.667 76.416-170.667 170.667s76.416 170.667 170.667 170.667zM256 277.333c-47.147 0-85.333-38.187-85.333-85.333s38.187-85.333 85.333-85.333c47.147 0 85.333 38.187 85.333 85.333s-38.187 85.333-85.333 85.333zM170.667 704c0-47.147 38.187-85.333 85.333-85.333s85.333 38.187 85.333 85.333c0 47.147-38.187 85.333-85.333 85.333s-85.333-38.187-85.333-85.333zM704 448c0 23.552 19.115 42.667 42.667 42.667h0.427c23.552 0 42.667-19.115 42.667-42.667s-19.115-42.667-42.667-42.667h-0.427c-23.552 0-42.667 19.115-42.667 42.667zM938.667 490.667c-23.552 0-42.667-19.115-42.667-42.667s19.115-42.667 42.667-42.667h0.427c23.552 0 42.667 19.115 42.667 42.667s-19.115 42.667-42.667 42.667h-0.427z" />
<glyph unicode="&#xe91a;" glyph-name="scissors-02" d="M168.832 557.227c-50.005 29.781-83.499 84.352-83.499 146.773 0 94.251 76.416 170.667 170.667 170.667s170.667-76.416 170.667-170.667c0-59.904-30.848-112.597-77.525-143.061l127.829-65.067 399.659 203.477c20.992 10.709 46.72 2.347 57.387-18.688 10.709-20.992 2.347-46.677-18.645-57.344l-344.363-175.317 344.363-175.317c20.992-10.667 29.355-36.352 18.645-57.387-10.667-20.992-36.395-29.355-57.387-18.645l-399.659 203.477-127.829-65.109c46.677-30.421 77.525-83.115 77.525-143.019 0-94.251-76.416-170.667-170.667-170.667s-170.667 76.416-170.667 170.667c0 62.421 33.493 116.992 83.499 146.773 1.152 0.725 2.347 1.408 3.541 2.048 4.139 2.304 8.363 4.48 12.715 6.443l197.845 100.736-197.845 100.736c-4.352 1.963-8.576 4.139-12.672 6.443-1.237 0.64-2.432 1.323-3.584 2.048zM213.205 265.856c-25.429-14.805-42.539-42.325-42.539-73.856 0-47.147 38.187-85.333 85.333-85.333s85.333 38.187 85.333 85.333c0 47.147-38.187 85.333-85.333 85.333-12.245 0-23.893-2.56-34.389-7.211zM170.667 704c0-31.531 17.109-59.051 42.539-73.856l8.363-4.267c10.539-4.651 22.187-7.211 34.432-7.211 47.147 0 85.333 38.187 85.333 85.333s-38.187 85.333-85.333 85.333c-47.147 0-85.333-38.187-85.333-85.333z" />
<glyph unicode="&#xe91b;" glyph-name="scissors-01" d="M256 874.667c94.251 0 170.667-76.416 170.667-170.667 0-31.659-8.619-61.269-23.637-86.699l108.971-108.971 311.168 311.168c16.64 16.683 43.691 16.683 60.331 0 16.683-16.64 16.683-43.691 0-60.331l-311.168-311.168 311.168-311.168c16.683-16.64 16.683-43.691 0-60.331-16.64-16.683-43.691-16.683-60.331 0l-311.168 311.168-108.971-108.971c15.019-25.387 23.637-55.040 23.637-86.699 0-94.251-76.416-170.667-170.667-170.667s-170.667 76.416-170.667 170.667c0 94.251 76.416 170.667 170.667 170.667 31.659 0 61.269-8.619 86.699-23.637l108.971 108.971-108.971 108.971c-25.429-15.019-55.040-23.637-86.699-23.637-94.251 0-170.667 76.416-170.667 170.667s76.416 170.667 170.667 170.667zM256 277.333c-47.147 0-85.333-38.187-85.333-85.333s38.187-85.333 85.333-85.333c47.147 0 85.333 38.187 85.333 85.333s-38.187 85.333-85.333 85.333zM170.667 704c0-47.147 38.187-85.333 85.333-85.333s85.333 38.187 85.333 85.333c0 47.147-38.187 85.333-85.333 85.333s-85.333-38.187-85.333-85.333z" />
<glyph unicode="&#xe91c;" glyph-name="scale-03" d="M331.051 874.667h373.376c29.227-0.043 53.845-0.213 74.325-1.877 2.987-0.256 5.973-0.512 8.917-0.853 20.565-2.261 39.68-6.656 57.813-15.872 32.128-16.341 58.24-42.453 74.581-74.581 10.539-20.693 14.763-42.752 16.725-66.731 1.877-23.083 1.877-51.456 1.877-85.803v-361.899c0-34.347 0-62.72-1.877-85.803-1.963-23.979-6.187-46.037-16.725-66.731-16.341-32.128-42.453-58.24-74.581-74.581-20.693-10.539-42.752-14.763-66.731-16.725-23.083-1.877-51.456-1.877-85.803-1.877h-361.899c-34.347 0-62.72 0-85.803 1.877-23.979 1.963-46.037 6.187-66.731 16.725-32.128 16.341-58.24 42.453-74.581 74.581-10.539 20.693-14.763 42.752-16.725 66.731-1.877 23.083-1.877 51.456-1.877 85.803v361.899c0 34.347 0 62.72 1.877 85.803 1.963 23.979 6.187 46.037 16.725 66.731 16.341 32.128 42.453 58.24 74.581 74.581 20.693 10.539 42.752 14.763 66.731 16.725 23.083 1.877 51.456 1.877 85.803 1.877zM332.8 789.333c-36.565 0-61.397-0.043-80.597-1.621-18.688-1.493-28.288-4.267-34.944-7.68-16.043-8.192-29.099-21.248-37.291-37.291-3.413-6.656-6.187-16.256-7.68-34.944-1.579-19.2-1.621-44.032-1.621-80.597v-358.4c0-36.565 0.043-61.397 1.621-80.597 1.493-18.688 4.267-28.288 7.68-34.944 8.192-16.043 21.248-29.099 37.291-37.291 6.656-3.413 16.256-6.187 34.944-7.68 19.2-1.579 44.032-1.621 80.597-1.621h358.4c36.565 0 61.397 0.043 80.597 1.621 18.688 1.493 28.288 4.267 34.944 7.68 16.043 8.192 29.099 21.248 37.291 37.291 3.413 6.656 6.187 16.256 7.68 34.944 1.579 19.2 1.621 44.032 1.621 80.597v144.128c-11.307-3.627-22.784-5.333-34.347-6.272-16-1.323-35.371-1.323-57.899-1.323h-114.219c-22.485 0-41.899 0-57.856 1.323-15.829 1.28-31.616 4.053-46.848 11.179l-140.501-140.501h110.336c23.552 0 42.667-19.115 42.667-42.667s-19.115-42.667-42.667-42.667h-213.333c-23.552 0-42.667 19.115-42.667 42.667v213.333c0 23.552 19.115 42.667 42.667 42.667s42.667-19.115 42.667-42.667v-110.336l140.501 140.501c-7.125 15.232-9.899 31.019-11.179 46.848-1.323 16-1.323 35.371-1.323 57.856v114.261c0 22.485 0 41.856 1.323 57.856 0.939 11.563 2.645 23.040 6.272 34.347z" />
<glyph unicode="&#xe91d;" glyph-name="scale-02" d="M331.051 874.667h361.899c34.347 0 62.72 0 85.803-1.877 23.979-1.963 46.037-6.187 66.731-16.725 32.128-16.341 58.197-42.453 74.581-74.581 10.539-20.693 14.763-42.752 16.725-66.731 1.877-23.083 1.877-51.456 1.877-85.803v-361.899c0-34.347 0-62.72-1.877-85.803-1.963-23.979-6.187-46.037-16.725-66.731-16.384-32.128-42.453-58.197-74.581-74.581-20.693-10.539-42.752-14.763-66.731-16.725-23.083-1.877-51.456-1.877-85.803-1.877h-10.283c-23.552 0-42.667 19.115-42.667 42.667s19.115 42.667 42.667 42.667h8.533c36.565 0 61.397 0.043 80.597 1.621 18.688 1.493 28.288 4.267 34.944 7.68 16.043 8.192 29.099 21.248 37.291 37.291 3.413 6.656 6.187 16.256 7.68 34.944 1.579 19.2 1.621 44.032 1.621 80.597v358.4c0 36.565-0.043 61.397-1.621 80.597-1.493 18.688-4.267 28.288-7.68 34.944-8.192 16.043-21.248 29.099-37.291 37.291-6.656 3.413-16.256 6.187-34.944 7.68-19.2 1.579-44.032 1.621-80.597 1.621h-358.4c-36.565 0-61.397-0.043-80.597-1.621-18.688-1.493-28.288-4.267-34.944-7.68-16.043-8.192-29.099-21.248-37.291-37.291-3.413-6.656-6.187-16.256-7.68-34.944-1.579-19.2-1.621-44.032-1.621-80.597v-8.533c0-23.552-19.115-42.667-42.667-42.667s-42.667 19.115-42.667 42.667v10.283c0 34.347 0 62.72 1.877 85.803 1.963 23.979 6.187 46.037 16.725 66.731 16.341 32.128 42.453 58.24 74.581 74.581 20.693 10.539 42.752 14.763 66.731 16.725 23.083 1.877 51.456 1.877 85.803 1.877zM377.131 490.667h-114.261c-22.485 0-41.856 0-57.856-1.323-16.853-1.365-33.664-4.395-49.792-12.629-24.064-12.288-43.648-31.829-55.936-55.936-8.235-16.128-11.264-32.939-12.629-49.792-1.323-16-1.323-35.371-1.323-57.856v-114.219c0-22.528 0-41.899 1.323-57.899 1.365-16.853 4.395-33.664 12.629-49.792 12.288-24.107 31.872-43.648 55.936-55.936 16.128-8.235 32.939-11.264 49.792-12.629 16-1.323 35.371-1.323 57.856-1.323h114.261c22.485 0 41.856 0 57.856 1.323 16.853 1.365 33.664 4.395 49.792 12.629 24.107 12.288 43.648 31.829 55.936 55.936 8.235 16.128 11.264 32.939 12.629 49.792 1.323 16 1.323 35.371 1.323 57.856v114.219c0 22.528 0 41.899-1.323 57.899-1.28 15.829-4.053 31.616-11.179 46.848l140.501 140.501v-110.336c0-23.552 19.115-42.667 42.667-42.667s42.667 19.115 42.667 42.667v213.333c0 23.552-19.115 42.667-42.667 42.667h-213.333c-23.552 0-42.667-19.115-42.667-42.667s19.115-42.667 42.667-42.667h110.336l-140.501-140.501c-15.232 7.125-31.019 9.899-46.848 11.179-16 1.323-35.371 1.323-57.856 1.323z" />
<glyph unicode="&#xe91e;" glyph-name="scale-01" d="M250.155 917.333h5.845c23.552 0 42.667-19.115 42.667-42.667s-19.115-42.667-42.667-42.667c-42.411 0-55.253-0.384-64.768-2.901-29.44-7.893-52.437-30.891-60.331-60.331-2.517-9.515-2.901-22.357-2.901-64.768 0-23.552-19.115-42.667-42.667-42.667s-42.667 19.115-42.667 42.667v5.845c0 33.963-0.043 59.179 5.803 80.981 15.787 58.923 61.781 104.917 120.704 120.704 21.803 5.845 47.019 5.803 80.981 5.803zM832.768 829.099c-9.472 2.517-22.357 2.901-64.768 2.901-23.552 0-42.667 19.115-42.667 42.667s19.115 42.667 42.667 42.667h5.888c33.92 0 59.136 0.043 80.939-5.803 58.923-15.787 104.917-61.781 120.704-120.704 5.845-21.803 5.845-47.019 5.803-80.981v-5.845c0-23.552-19.115-42.667-42.667-42.667s-42.667 19.115-42.667 42.667c0 42.411-0.384 55.253-2.901 64.768-7.893 29.44-30.891 52.437-60.331 60.331zM384 874.667c0 23.552 19.115 42.667 42.667 42.667h170.667c23.552 0 42.667-19.115 42.667-42.667s-19.115-42.667-42.667-42.667h-170.667c-23.552 0-42.667 19.115-42.667 42.667zM85.333 576c23.552 0 42.667-19.115 42.667-42.667v-65.536c2.56 1.493 5.205 2.901 7.851 4.267 20.693 10.539 42.752 14.763 66.731 16.725 23.083 1.877 51.456 1.877 85.803 1.877h20.565c34.347 0 62.72 0 85.803-1.877 23.979-1.963 46.037-6.187 66.731-16.725 32.128-16.341 58.24-42.453 74.581-74.581 10.539-20.693 14.763-42.752 16.725-66.731 1.877-23.083 1.877-51.456 1.877-85.803v-20.565c0-34.347 0-62.72-1.877-85.803-1.963-23.979-6.187-46.037-16.725-66.731-1.365-2.645-2.773-5.291-4.267-7.851h65.536c23.552 0 42.667-19.115 42.667-42.667s-19.115-42.667-42.667-42.667h-308.949c-34.347 0-62.72 0-85.803 1.877-23.979 1.963-46.037 6.187-66.731 16.725-12.032 6.144-23.253 13.653-33.408 22.315-7.979 6.827-15.317 14.379-21.888 22.571-7.424 9.131-13.867 19.115-19.285 29.696-10.539 20.693-14.763 42.752-16.725 66.731-1.877 23.083-1.877 51.456-1.877 85.803v20.565c0 4.523 0 8.96 0 13.269v275.115c0 23.552 19.115 42.667 42.667 42.667zM938.667 576c23.552 0 42.667-19.115 42.667-42.667v-170.667c0-23.552-19.115-42.667-42.667-42.667s-42.667 19.115-42.667 42.667v170.667c0 23.552 19.115 42.667 42.667 42.667zM938.667 234.667c23.552 0 42.667-19.115 42.667-42.667v-5.888c0.043-33.92 0.043-59.136-5.803-80.939-15.787-58.923-61.781-104.917-120.704-120.704-21.803-5.845-47.019-5.845-80.939-5.803h-5.888c-23.552 0-42.667 19.115-42.667 42.667s19.115 42.667 42.667 42.667c42.411 0 55.296 0.384 64.768 2.901 29.44 7.893 52.437 30.891 60.331 60.331 2.517 9.472 2.901 22.357 2.901 64.768 0 23.552 19.115 42.667 42.667 42.667z" />
<glyph unicode="&#xe91f;" glyph-name="ruler" d="M745.088 905.387c9.941-3.243 17.152-8.619 21.888-12.629 4.096-3.456 8.363-7.765 11.947-11.349l166.485-166.485c3.584-3.584 7.893-7.851 11.349-11.947 4.011-4.736 9.387-11.947 12.587-21.845 4.181-12.885 4.181-26.709 0-39.552-3.2-9.941-8.576-17.152-12.587-21.888-3.456-4.096-7.765-8.363-11.349-11.947l-593.152-593.152c-3.584-3.584-7.851-7.893-11.947-11.349-4.736-4.011-11.947-9.387-21.888-12.587-12.843-4.181-26.667-4.181-39.552 0-9.899 3.2-17.109 8.576-21.845 12.587-4.096 3.456-8.363 7.765-11.989 11.349l-166.443 166.485c-3.584 3.584-7.893 7.851-11.349 11.947-4.011 4.736-9.387 11.947-12.629 21.888-4.139 12.843-4.139 26.667 0 39.552 3.243 9.899 8.619 17.109 12.629 21.845 3.456 4.096 7.765 8.363 11.349 11.989l593.152 593.109c3.584 3.584 7.851 7.893 11.947 11.349 4.736 4.011 11.947 9.387 21.845 12.629 12.885 4.139 26.709 4.139 39.552 0zM631.168 712.832c-16.683-16.64-16.683-43.691 0-60.331l64-64c16.64-16.683 43.691-16.683 60.331 0 16.683 16.64 16.683 43.691 0 60.331l-64 64c-16.64 16.683-43.691 16.683-60.331 0zM307.499 328.832c-16.64 16.683-43.691 16.683-60.331 0-16.683-16.64-16.683-43.691 0-60.331l64-64c16.64-16.683 43.691-16.683 60.331 0 16.683 16.64 16.683 43.691 0 60.331zM375.168 456.832c-16.683-16.64-16.683-43.691 0-60.331l64-64c16.64-16.683 43.691-16.683 60.331 0 16.683 16.64 16.683 43.691 0 60.331l-64 64c-16.64 16.683-43.691 16.683-60.331 0zM563.499 584.832c-16.64 16.683-43.691 16.683-60.331 0-16.683-16.64-16.683-43.691 0-60.331l64-64c16.64-16.683 43.691-16.683 60.331 0 16.683 16.64 16.683 43.691 0 60.331z" />
<glyph unicode="&#xe920;" glyph-name="roller-brush" d="M231.083 917.333c-16.213 0-30.208 0.043-42.709-2.475-50.773-10.069-90.496-49.792-100.565-100.565-2.517-12.501-2.475-26.453-2.475-42.709v-7.168c0-16.256-0.043-30.251 2.475-42.709 10.069-50.773 49.792-90.496 100.565-100.565 12.501-2.517 26.453-2.475 42.709-2.475h476.501c16.256 0 30.251-0.043 42.709 2.475 50.773 10.069 90.496 49.792 100.565 100.565 0.213 1.024 0.427 2.048 0.597 3.115 1.024-0.085 2.005-0.128 2.987-0.213 9.728-0.64 13.44-1.792 15.232-2.517 10.453-4.352 18.731-12.629 23.083-23.083 0.725-1.792 1.877-5.504 2.517-15.232 0.725-10.112 0.725-23.296 0.725-43.776v-12.8c0-24.619-0.043-40.491-1.024-52.565-0.939-11.605-2.56-15.915-3.627-18.005-4.096-8.021-10.624-14.549-18.645-18.645-2.133-1.067-6.4-2.688-18.005-3.627-12.075-0.981-27.947-1.024-52.565-1.024h-155.221c-22.528 0-41.899 0-57.899-1.323-16.853-1.365-33.664-4.395-49.792-12.629-24.107-12.288-43.648-31.829-55.936-55.936-8.235-16.128-11.264-32.939-12.629-49.792-1.195-14.421-1.323-31.616-1.323-51.328-2.048-0.128-4.011-0.213-5.888-0.384-9.771-0.811-21.291-2.688-32.853-8.576-16.043-8.192-29.099-21.248-37.291-37.291-5.888-11.563-7.765-23.083-8.576-32.853-0.725-8.875-0.725-19.371-0.725-30.123v-164.864c0-10.752 0-21.248 0.725-30.123 0.811-9.771 2.688-21.291 8.576-32.853 8.192-16.043 21.248-29.099 37.291-37.291 11.563-5.888 23.083-7.765 32.853-8.576 8.875-0.725 19.371-0.725 30.123-0.725h36.864c10.752 0 21.248 0 30.123 0.725 9.771 0.811 21.291 2.688 32.853 8.576 16.043 8.192 29.099 21.248 37.291 37.291 5.888 11.563 7.765 23.083 8.576 32.853 0.725 8.875 0.725 19.371 0.725 30.123v164.864c0 10.752 0 21.248-0.725 30.123-0.811 9.771-2.688 21.291-8.576 32.853-8.192 16.043-21.248 29.099-37.291 37.291-11.563 5.888-23.083 7.765-32.853 8.576-1.877 0.171-3.84 0.256-5.888 0.384 0.043 20.011 0.171 33.707 1.024 44.373 0.939 11.605 2.56 15.915 3.627 18.005 4.096 8.021 10.624 14.549 18.645 18.645 2.091 1.067 6.4 2.688 18.005 3.627 12.075 0.981 27.947 1.024 52.565 1.024h155.221c22.528 0 41.899 0 57.899 1.323 16.853 1.365 33.664 4.395 49.792 12.629 24.107 12.288 43.648 31.829 55.936 55.936 8.235 16.128 11.264 32.939 12.629 49.792 1.323 16 1.323 35.371 1.323 57.856v15.829c0 18.731 0 34.859-0.896 48.213-0.981 14.080-3.072 28.16-8.832 42.069-13.013 31.36-37.931 56.277-69.291 69.291-13.909 5.76-27.989 7.851-42.069 8.832-2.731 0.171-5.632 0.341-8.661 0.427-0.213 1.408-0.427 2.773-0.725 4.096-10.069 50.773-49.792 90.496-100.565 100.565-12.459 2.517-26.453 2.475-42.709 2.475h-476.501z" />
<glyph unicode="&#xe921;" glyph-name="right-indent-02" d="M875.989 896c-16.555 0.341-29.483-6.955-36.309-11.179-6.997-4.309-14.976-10.283-22.699-16.085l-167.125-125.355c-5.333-3.968-11.349-8.491-16.171-12.8-5.291-4.779-13.141-12.757-17.792-24.704-5.803-14.933-5.803-31.488 0-46.421 4.651-11.947 12.501-19.925 17.792-24.704 4.821-4.309 10.837-8.832 16.171-12.8l167.125-125.355c7.723-5.803 15.701-11.776 22.699-16.085 6.827-4.224 19.755-11.52 36.309-11.179 19.2 0.427 37.205 9.429 49.067 24.533 10.197 13.056 12.117 27.776 12.885 35.755 0.725 8.192 0.725 18.133 0.725 27.819v250.453c0 9.685 0 19.627-0.725 27.819-0.768 7.979-2.688 22.699-12.885 35.755-11.861 15.104-29.867 24.107-49.067 24.533zM128 832c-23.552 0-42.667-19.115-42.667-42.667s19.115-42.667 42.667-42.667h384c23.552 0 42.667 19.115 42.667 42.667s-19.115 42.667-42.667 42.667h-384zM128 608c-23.552 0-42.667-19.115-42.667-42.667s19.115-42.667 42.667-42.667h384c23.552 0 42.667 19.115 42.667 42.667s-19.115 42.667-42.667 42.667h-384zM85.333 330.667c0 23.552 19.115 42.667 42.667 42.667h768c23.552 0 42.667-19.115 42.667-42.667s-19.115-42.667-42.667-42.667h-768c-23.552 0-42.667 19.115-42.667 42.667zM128 149.333c-23.552 0-42.667-19.115-42.667-42.667s19.115-42.667 42.667-42.667h768c23.552 0 42.667 19.115 42.667 42.667s-19.115 42.667-42.667 42.667h-768z" />
<glyph unicode="&#xe922;" glyph-name="right-indent-01" d="M128 832c-23.552 0-42.667-19.115-42.667-42.667s19.115-42.667 42.667-42.667h768c23.552 0 42.667 19.115 42.667 42.667s-19.115 42.667-42.667 42.667h-768zM128 149.333c-23.552 0-42.667-19.115-42.667-42.667s19.115-42.667 42.667-42.667h768c23.552 0 42.667 19.115 42.667 42.667s-19.115 42.667-42.667 42.667h-768zM85.333 565.333c0 23.552 19.115 42.667 42.667 42.667h384c23.552 0 42.667-19.115 42.667-42.667s-19.115-42.667-42.667-42.667h-384c-23.552 0-42.667 19.115-42.667 42.667zM128 373.333c-23.552 0-42.667-19.115-42.667-42.667s19.115-42.667 42.667-42.667h384c23.552 0 42.667 19.115 42.667 42.667s-19.115 42.667-42.667 42.667h-384zM875.989 661.333c-16.555 0.341-29.483-6.955-36.309-11.179-6.997-4.309-14.976-10.283-22.699-16.085l-167.125-125.355c-5.333-3.968-11.349-8.491-16.171-12.8-5.291-4.779-13.141-12.715-17.792-24.704-5.803-14.933-5.803-31.488 0-46.421 4.651-11.947 12.501-19.925 17.792-24.704 4.821-4.309 10.837-8.832 16.171-12.8l167.125-125.355c7.723-5.803 15.701-11.776 22.699-16.085 6.827-4.224 19.755-11.52 36.309-11.179 19.2 0.427 37.205 9.429 49.067 24.533 10.197 13.056 12.117 27.776 12.885 35.755 0.725 8.192 0.725 18.133 0.725 27.819v250.453c0 9.685 0 19.627-0.725 27.819-0.768 7.979-2.688 22.699-12.885 35.755-11.861 15.104-29.867 24.107-49.067 24.533z" />
<glyph unicode="&#xe923;" glyph-name="reflect-02" d="M554.667 832c0 23.552-19.115 42.667-42.667 42.667s-42.667-19.115-42.667-42.667v-128c0-23.552 19.115-42.667 42.667-42.667s42.667 19.115 42.667 42.667v128zM862.165 648.832c16.683-16.64 16.683-43.691 0-60.331l-97.835-97.835h174.336c23.552 0 42.667-19.115 42.667-42.667s-19.115-42.667-42.667-42.667h-174.336l97.835-97.835c16.683-16.64 16.683-43.691 0-60.331-16.64-16.683-43.691-16.683-60.331 0l-170.667 170.667c-16.683 16.64-16.683 43.691 0 60.331l170.667 170.667c16.64 16.683 43.691 16.683 60.331 0zM85.333 490.667c-23.552 0-42.667-19.115-42.667-42.667s19.115-42.667 42.667-42.667h174.336l-97.835-97.835c-16.683-16.64-16.683-43.691 0-60.331 16.64-16.683 43.691-16.683 60.331 0l170.667 170.667c16.683 16.64 16.683 43.691 0 60.331l-170.667 170.667c-16.64 16.683-43.691 16.683-60.331 0-16.683-16.64-16.683-43.691 0-60.331l97.835-97.835h-174.336zM512 554.667c23.552 0 42.667-19.115 42.667-42.667v-128c0-23.552-19.115-42.667-42.667-42.667s-42.667 19.115-42.667 42.667v128c0 23.552 19.115 42.667 42.667 42.667zM554.667 192c0 23.552-19.115 42.667-42.667 42.667s-42.667-19.115-42.667-42.667v-128c0-23.552 19.115-42.667 42.667-42.667s42.667 19.115 42.667 42.667v128z" />
<glyph unicode="&#xe924;" glyph-name="reflect-01" d="M554.667 832c0 23.552-19.115 42.667-42.667 42.667s-42.667-19.115-42.667-42.667v-128c0-23.552 19.115-42.667 42.667-42.667s42.667 19.115 42.667 42.667v128zM165.12 653.781l189.312-145.621c5.163-3.968 11.008-8.448 15.701-12.8 5.205-4.779 12.8-12.672 17.323-24.448 5.632-14.763 5.632-31.061 0-45.824-4.523-11.776-12.117-19.669-17.323-24.491-4.693-4.309-10.539-8.789-15.701-12.757l-189.312-145.664c-7.808-5.973-15.787-12.117-22.784-16.555-6.784-4.309-19.755-11.819-36.437-11.648-19.328 0.256-37.504 9.216-49.493 24.363-10.325 13.141-12.245 27.989-12.971 36.011-0.768 8.235-0.768 18.304-0.768 28.117v291.029c0 9.813 0 19.883 0.768 28.16 0.725 7.979 2.645 22.869 12.971 35.968 11.989 15.189 30.165 24.149 49.493 24.363 16.683 0.213 29.653-7.339 36.437-11.605 6.997-4.48 14.976-10.581 22.784-16.597zM881.664 670.379c6.784 4.267 19.755 11.819 36.437 11.605 19.328-0.213 37.504-9.173 49.493-24.363 10.325-13.099 12.245-27.989 13.013-35.968 0.725-8.277 0.725-18.347 0.725-28.16v-291.029c0-9.813 0-19.883-0.725-28.117-0.768-8.021-2.688-22.869-13.013-36.011-11.989-15.147-30.165-24.107-49.493-24.363-16.683-0.171-29.653 7.339-36.437 11.648-6.997 4.437-14.976 10.581-22.784 16.555l-189.312 145.664c-5.163 3.968-11.008 8.448-15.701 12.757-5.205 4.821-12.8 12.715-17.323 24.491-5.632 14.763-5.632 31.061 0 45.824 4.523 11.776 12.117 19.669 17.323 24.448 4.693 4.352 10.539 8.832 15.701 12.8l189.312 145.621c7.808 6.016 15.787 12.117 22.784 16.597zM512 554.667c23.552 0 42.667-19.115 42.667-42.667v-128c0-23.552-19.115-42.667-42.667-42.667s-42.667 19.115-42.667 42.667v128c0 23.552 19.115 42.667 42.667 42.667zM554.667 192c0 23.552-19.115 42.667-42.667 42.667s-42.667-19.115-42.667-42.667v-128c0-23.552 19.115-42.667 42.667-42.667s42.667 19.115 42.667 42.667v128z" />
<glyph unicode="&#xe925;" glyph-name="pilcrow-square" d="M469.333 618.667h128v-170.667h-128c-47.147 0-85.333 38.187-85.333 85.333s38.187 85.333 85.333 85.333zM692.949 874.667v0c34.347 0 62.72 0 85.803-1.877 23.979-1.963 46.037-6.187 66.731-16.725 32.128-16.341 58.24-42.453 74.581-74.581 10.539-20.693 14.763-42.752 16.725-66.731 1.877-23.083 1.877-51.456 1.877-85.803v-361.899c0-34.347 0-62.72-1.877-85.803-1.963-23.979-6.187-46.037-16.725-66.731-16.341-32.128-42.453-58.24-74.581-74.581-20.693-10.539-42.752-14.763-66.731-16.725-23.083-1.877-51.456-1.877-85.803-1.877h-361.899c-34.347 0-62.72 0-85.803 1.877-23.979 1.963-46.037 6.187-66.731 16.725-32.128 16.341-58.24 42.453-74.581 74.581-10.539 20.693-14.763 42.752-16.725 66.731-1.877 23.083-1.877 51.456-1.877 85.803v361.899c0 34.347 0 62.72 1.877 85.803 1.963 23.979 6.187 46.037 16.725 66.731 16.341 32.128 42.453 58.24 74.581 74.581 20.693 10.539 42.752 14.763 66.731 16.725 23.083 1.877 51.456 1.877 85.803 1.877h361.899zM298.667 533.333c0-94.251 76.416-170.667 170.667-170.667h128v-128c0-23.552 19.115-42.667 42.667-42.667s42.667 19.115 42.667 42.667v426.667c0 23.552-19.115 42.667-42.667 42.667h-170.667c-94.251 0-170.667-76.416-170.667-170.667z" />
<glyph unicode="&#xe926;" glyph-name="pilcrow-02" d="M384 832h448c23.552 0 42.667-19.115 42.667-42.667s-19.115-42.667-42.667-42.667h-42.667v-597.333h42.667c23.552 0 42.667-19.115 42.667-42.667s-19.115-42.667-42.667-42.667h-320c-23.552 0-42.667 19.115-42.667 42.667s19.115 42.667 42.667 42.667h42.667v256h-170.667c-117.803 0-213.333 95.531-213.333 213.333s95.531 213.333 213.333 213.333zM384 746.667c-70.699 0-128-57.301-128-128s57.301-128 128-128h170.667v256z" />
<glyph unicode="&#xe927;" glyph-name="pilcrow-01" d="M448 832h320c23.552 0 42.667-19.115 42.667-42.667s-19.115-42.667-42.667-42.667h-42.667v-597.333h42.667c23.552 0 42.667-19.115 42.667-42.667s-19.115-42.667-42.667-42.667h-170.667c-23.552 0-42.667 19.115-42.667 42.667s19.115 42.667 42.667 42.667h42.667v213.333h-192c-129.621 0-234.667 105.045-234.667 234.667s105.045 234.667 234.667 234.667zM640 746.667h-192c-82.475 0-149.333-66.859-149.333-149.333s66.859-149.333 149.333-149.333h192z" />
<glyph unicode="&#xe928;" glyph-name="perspective-02" d="M301.611 879.787l498.133-110.677c17.877-3.968 33.493-7.467 46.336-11.307 13.653-4.139 26.965-9.429 39.424-18.389 18.816-13.568 33.621-32.043 42.795-53.376 6.059-14.080 8.32-28.203 9.387-42.453 0.981-13.355 0.981-29.355 0.981-47.701v-295.808c0-18.304 0-34.304-0.981-47.659-1.067-14.251-3.328-28.373-9.387-42.496-9.173-21.333-23.979-39.765-42.795-53.333-12.459-8.96-25.771-14.293-39.424-18.389-12.843-3.84-28.459-7.339-46.336-11.307l-498.133-110.677c-26.88-5.973-49.707-11.051-68.608-13.568-19.627-2.56-39.68-3.115-59.691 3.499-29.355 9.643-54.187 29.568-69.973 56.107-10.795 18.091-14.592 37.845-16.341 57.557-1.664 18.944-1.664 42.368-1.664 69.888v516.608c0 27.52 0 50.944 1.664 69.888 1.749 19.712 5.547 39.467 16.341 57.557 15.787 26.539 40.619 46.464 69.973 56.107 20.011 6.613 40.064 6.059 59.691 3.456 18.901-2.475 41.728-7.552 68.608-13.525zM384 490.667v283.392l-99.115 22.016c-29.141 6.485-48.299 10.709-63.019 12.629-14.336 1.92-19.584 0.853-21.888 0.085-9.771-3.2-18.048-9.856-23.296-18.688-1.237-2.048-3.413-6.955-4.693-21.376-1.28-14.763-1.323-34.389-1.323-64.256v-213.803zM469.333 405.333v-264.448l170.667 37.931v226.517zM853.333 490.667v103.808c0 20.139-0.043 32.981-0.768 42.837-0.683 9.344-1.835 13.056-2.688 15.061-3.072 7.125-7.979 13.269-14.293 17.792-1.749 1.28-5.12 3.2-14.080 5.888-9.472 2.859-21.973 5.675-41.685 10.069l-54.485 12.075v-207.531z" />
<glyph unicode="&#xe929;" glyph-name="perspective-01" d="M194.901 874.667h36.864c10.752 0 21.248 0 30.123-0.725 9.771-0.811 21.291-2.688 32.853-8.576 16.043-8.192 29.099-21.248 37.291-37.291 5.888-11.563 7.765-23.083 8.576-32.853 0.597-7.125 0.683-15.232 0.725-23.723l343.723-49.109c1.28 6.485 3.371 13.397 6.912 20.352 8.192 16.043 21.248 29.099 37.291 37.291 11.563 5.888 23.083 7.765 32.853 8.576 8.875 0.725 19.371 0.725 30.123 0.725h36.864c10.752 0 21.248 0 30.123-0.725 9.771-0.811 21.291-2.688 32.853-8.576 16.043-8.192 29.099-21.248 37.291-37.291 5.888-11.563 7.765-23.083 8.576-32.853 0.725-8.832 0.725-19.243 0.725-29.952v-37.205c0-10.709 0-21.12-0.725-29.952-0.811-9.771-2.688-21.291-8.576-32.853-8.192-16.043-21.248-29.099-37.291-37.291-11.563-5.888-23.083-7.765-32.853-8.576-1.877-0.171-3.84-0.299-5.888-0.384v-171.349c2.048-0.085 4.011-0.213 5.888-0.384 9.771-0.811 21.291-2.688 32.853-8.576 16.043-8.192 29.099-21.248 37.291-37.291 5.888-11.563 7.765-23.083 8.576-32.853 0.725-8.832 0.725-19.243 0.725-29.952v-37.205c0-10.709 0-21.12-0.725-29.952-0.811-9.771-2.688-21.291-8.576-32.853-8.192-16.043-21.248-29.099-37.291-37.291-11.563-5.888-23.083-7.765-32.853-8.576-8.832-0.725-19.243-0.725-29.952-0.725h-37.205c-10.709 0-21.12 0-29.952 0.725-9.771 0.811-21.291 2.688-32.853 8.576-16.043 8.192-29.099 21.248-37.291 37.291-3.541 6.912-5.632 13.824-6.912 20.352l-343.723-49.109c-0.043-8.491-0.128-16.64-0.725-23.723-0.811-9.771-2.688-21.291-8.576-32.853-8.192-16.043-21.248-29.099-37.291-37.291-11.563-5.888-23.083-7.765-32.853-8.576-8.832-0.725-19.243-0.725-29.952-0.725h-37.205c-10.709 0-21.12 0-29.952 0.725-9.771 0.811-21.291 2.688-32.853 8.576-16.043 8.192-29.099 21.248-37.291 37.291-5.888 11.563-7.765 23.083-8.576 32.853-0.725 8.875-0.725 19.371-0.725 30.123v36.864c0 10.752 0 21.248 0.725 30.123 0.811 9.771 2.688 21.291 8.576 32.853 8.192 16.043 21.248 29.099 37.291 37.291 11.563 5.888 23.083 7.765 32.853 8.576 1.877 0.171 3.84 0.299 5.888 0.384v342.016c-2.048 0.085-4.011 0.213-5.888 0.384-9.771 0.811-21.291 2.688-32.853 8.576-16.043 8.192-29.099 21.248-37.291 37.291-5.888 11.563-7.765 23.083-8.576 32.853-0.725 8.875-0.725 19.371-0.725 30.123v36.864c0 10.752 0 21.248 0.725 30.123 0.811 9.771 2.688 21.291 8.576 32.853 8.192 16.043 21.248 29.099 37.291 37.291 11.563 5.888 23.083 7.765 32.853 8.576 8.875 0.725 19.371 0.725 30.123 0.725zM768 362.325v171.349c-2.048 0.085-4.011 0.213-5.888 0.384-9.771 0.811-21.291 2.688-32.853 8.576-16.043 8.192-29.099 21.248-37.291 37.291-5.888 11.563-7.765 23.083-8.576 32.853-0.597 7.083-0.683 15.232-0.725 23.723l-343.723 49.109c-1.28-6.528-3.371-13.397-6.912-20.352-8.192-16.043-21.248-29.099-37.291-37.291-11.563-5.888-23.083-7.765-32.853-8.576-1.877-0.171-3.84-0.299-5.888-0.384v-342.016c2.048-0.085 4.011-0.213 5.888-0.384 9.771-0.811 21.291-2.688 32.853-8.576 16.043-8.192 29.099-21.248 37.291-37.291 3.541-6.955 5.632-13.867 6.912-20.352l343.723 49.109c0.043 8.491 0.128 16.64 0.725 23.723 0.811 9.771 2.688 21.291 8.576 32.853 8.192 16.043 21.248 29.099 37.291 37.291 11.563 5.888 23.083 7.765 32.853 8.576 1.877 0.171 3.84 0.299 5.888 0.384z" />
<glyph unicode="&#xe92a;" glyph-name="pencil-line" d="M695.168 862.165c63.787 63.787 167.211 63.787 230.997 0s63.787-167.211 0-230.997l-482.816-482.859c-9.984-9.941-17.493-17.493-26.027-24.064-7.509-5.845-15.531-11.051-23.893-15.573-9.515-5.077-19.456-8.917-32.597-13.952l-5.333-2.048c-1.365-0.512-2.688-1.024-3.968-1.536l-229.547-88.277c-15.744-6.059-33.579-2.261-45.483 9.643-8.149 8.149-12.501 19.072-12.501 30.165 0 5.163 0.939 10.325 2.859 15.317l91.861 238.848c5.035 13.141 8.875 23.083 13.952 32.597 4.523 8.363 9.728 16.384 15.531 23.893 6.613 8.533 14.165 16.043 24.107 26.027zM229.589 243.413l-48.64-126.464 126.464 48.64zM554.667 106.667h341.333c23.552 0 42.667-19.115 42.667-42.667s-19.115-42.667-42.667-42.667h-341.333c-23.552 0-42.667 19.115-42.667 42.667s19.115 42.667 42.667 42.667z" />
<glyph unicode="&#xe92b;" glyph-name="pencil-02" d="M798.165 904.832c-16.64 16.683-43.691 16.683-60.331 0-16.683-16.64-16.683-43.691 0-60.331l170.667-170.667c16.64-16.683 43.691-16.683 60.331 0 16.683 16.64 16.683 43.691 0 60.331l-170.667 170.667zM620.245 777.387c12.843 4.139 26.667 4.139 39.509 0 9.941-3.243 17.152-8.619 21.888-12.629 4.096-3.456 8.363-7.765 11.947-11.349l123.819-123.776c3.584-3.627 7.893-7.893 11.349-11.989 4.011-4.736 9.387-11.947 12.629-21.845 4.139-12.885 4.139-26.709 0-39.552-3.243-9.941-8.619-17.152-12.629-21.888-3.456-4.096-7.765-8.363-11.349-11.947l-443.221-443.221c-7.936-7.979-14.976-15.019-23.125-20.949-7.168-5.205-14.848-9.685-22.955-13.312-9.173-4.139-18.773-6.741-29.653-9.685l-201.899-55.083c-14.763-4.011-30.549 0.171-41.387 11.008s-15.019 26.624-11.008 41.387l55.083 201.899c2.944 10.88 5.547 20.48 9.685 29.653 3.627 8.107 8.107 15.787 13.312 22.955 5.931 8.149 12.971 15.189 20.949 23.125l443.221 443.221c3.584 3.584 7.851 7.893 11.947 11.349 4.736 4.011 11.947 9.387 21.888 12.629z" />
<glyph unicode="&#xe92c;" glyph-name="pencil-01" d="M926.165 862.165c63.787-63.787 63.787-167.211 0-230.997l-482.816-482.859c-9.984-9.941-17.493-17.493-26.027-24.064-7.509-5.845-15.531-11.051-23.893-15.573-9.515-5.077-19.456-8.917-32.597-13.952l-5.333-2.048c-1.365-0.512-2.688-1.024-3.968-1.536l-229.547-88.277c-15.744-6.059-33.579-2.261-45.483 9.643-8.149 8.149-12.501 19.072-12.501 30.165 0 5.163 0.939 10.325 2.859 15.317l91.861 238.848c5.035 13.141 8.875 23.083 13.952 32.597 4.523 8.363 9.728 16.384 15.531 23.893 6.613 8.533 14.165 16.043 24.107 26.027l482.859 482.816c63.787 63.787 167.211 63.787 230.997 0zM229.589 243.413l-48.64-126.464 126.464 48.64z" />
<glyph unicode="&#xe92d;" glyph-name="pen-tool-plus" d="M751.701 852.821c-17.152 5.589-35.584 5.589-52.736 0-12.373-4.011-21.845-10.837-29.269-17.152-6.827-5.76-14.208-13.184-21.845-20.821l-33.365-33.365c-7.637-7.595-15.019-15.019-20.821-21.803-6.315-7.467-13.141-16.939-17.152-29.312-4.565-14.080-5.376-29.056-2.432-43.477l-211.584-60.459c-10.069-2.816-22.699-6.4-33.707-13.568-9.515-6.144-17.707-14.165-24.064-23.552-7.381-10.88-11.179-23.424-14.251-33.408l-0.811-2.731-147.328-407.851c-15.061-41.728-22.613-62.592-18.517-70.784 3.541-7.040 10.667-11.563 18.56-11.776 9.131-0.256 24.832 15.445 56.192 46.848l230.997 230.955c-1.877 7.040-2.901 14.464-2.901 22.101 0 47.147 38.187 85.333 85.333 85.333s85.333-38.187 85.333-85.333c0-47.147-38.187-85.333-85.333-85.333-7.637 0-15.061 1.024-22.101 2.901l-230.955-230.955c-31.403-31.403-47.061-47.061-46.848-56.235 0.213-7.893 4.736-15.019 11.776-18.517 8.192-4.139 29.056 3.413 70.784 18.517l410.539 148.139c9.984 3.029 22.571 6.827 33.408 14.208 9.387 6.357 17.408 14.549 23.595 24.064 7.168 11.008 10.709 23.637 13.568 33.707l0.768 2.731 59.691 208.853c14.379-2.944 29.397-2.133 43.477 2.432 12.373 4.011 21.845 10.837 29.312 17.152 6.784 5.803 14.208 13.184 21.803 20.821l33.365 33.365c7.637 7.637 15.061 15.019 20.821 21.845 6.315 7.424 13.141 16.896 17.152 29.269 5.589 17.152 5.589 35.584 0 52.736-4.011 12.373-10.837 21.845-17.152 29.312-5.76 6.784-13.184 14.208-20.821 21.803l-161.365 161.365c-7.595 7.637-15.019 15.061-21.803 20.821-7.467 6.315-16.939 13.141-29.312 17.152zM256 874.667c0 23.552-19.115 42.667-42.667 42.667s-42.667-19.115-42.667-42.667v-85.333h-85.333c-23.552 0-42.667-19.115-42.667-42.667s19.115-42.667 42.667-42.667h85.333v-85.333c0-23.552 19.115-42.667 42.667-42.667s42.667 19.115 42.667 42.667v85.333h85.333c23.552 0 42.667 19.115 42.667 42.667s-19.115 42.667-42.667 42.667h-85.333v85.333z" />
<glyph unicode="&#xe92e;" glyph-name="pen-tool-minus" d="M751.701 852.821c-17.152 5.589-35.584 5.589-52.736 0-12.373-4.011-21.845-10.837-29.269-17.152-6.827-5.76-14.208-13.184-21.845-20.821l-33.365-33.365c-7.637-7.595-15.019-15.019-20.821-21.803-6.315-7.467-13.141-16.939-17.152-29.312-4.565-14.080-5.376-29.056-2.432-43.477l-211.584-60.459c-10.069-2.816-22.699-6.4-33.707-13.568-9.515-6.144-17.707-14.165-24.064-23.552-7.381-10.88-11.179-23.424-14.251-33.408l-0.811-2.731-147.328-407.851c-15.061-41.728-22.613-62.592-18.517-70.784 3.541-7.040 10.667-11.563 18.56-11.776 9.131-0.256 24.832 15.445 56.192 46.848l230.997 230.955c-1.877 7.040-2.901 14.464-2.901 22.101 0 47.147 38.187 85.333 85.333 85.333s85.333-38.187 85.333-85.333c0-47.147-38.187-85.333-85.333-85.333-7.637 0-15.061 1.024-22.101 2.901l-230.955-230.955c-31.403-31.403-47.061-47.061-46.848-56.235 0.213-7.893 4.736-15.019 11.776-18.517 8.192-4.139 29.056 3.413 70.784 18.517l410.539 148.139c9.984 3.029 22.571 6.827 33.408 14.208 9.387 6.357 17.408 14.549 23.595 24.064 7.168 11.008 10.709 23.637 13.568 33.707l0.768 2.731 59.691 208.853c14.379-2.944 29.397-2.133 43.477 2.432 12.373 4.011 21.845 10.837 29.312 17.152 6.784 5.803 14.208 13.184 21.803 20.821l33.365 33.365c7.637 7.637 15.061 15.019 20.821 21.845 6.315 7.424 13.141 16.896 17.152 29.269 5.589 17.152 5.589 35.584 0 52.736-4.011 12.373-10.837 21.845-17.152 29.312-5.76 6.784-13.184 14.208-20.821 21.803l-161.365 161.365c-7.595 7.637-15.019 15.061-21.803 20.821-7.467 6.315-16.939 13.141-29.312 17.152zM85.333 789.333c-23.552 0-42.667-19.115-42.667-42.667s19.115-42.667 42.667-42.667h256c23.552 0 42.667 19.115 42.667 42.667s-19.115 42.667-42.667 42.667h-256z" />
<glyph unicode="&#xe92f;" glyph-name="pen-tool-02" d="M192.853 10.155c-37.845-11.136-56.747-16.683-64.555-12.373-6.741 3.755-10.923 10.795-11.008 18.517-0.043 8.917 13.909 22.869 41.771 50.731l288.171 288.213c7.083-1.92 14.464-2.901 22.101-2.901 47.147 0 85.333 38.187 85.333 85.333 0 47.104-38.187 85.333-85.333 85.333-47.104 0-85.333-38.229-85.333-85.333 0-7.637 1.024-15.061 2.901-22.101l-288.171-288.171c-27.904-27.904-41.813-41.856-50.773-41.771-7.68 0.043-14.763 4.267-18.475 10.965-4.352 7.808 1.237 26.752 12.373 64.555l141.909 482.048c2.773 11.819 6.315 26.667 14.507 39.253 7.125 10.88 16.597 20.011 27.733 26.667 12.928 7.68 27.861 10.624 39.765 12.971l222.165 44.416c-1.92 12.971-0.853 26.283 3.243 38.869 4.011 12.373 10.837 21.845 17.152 29.269 5.803 6.827 13.184 14.208 20.821 21.845l33.365 33.365c7.637 7.637 15.061 15.061 21.845 20.821 7.424 6.315 16.896 13.141 29.269 17.152 17.152 5.547 35.584 5.547 52.736 0 12.373-4.011 21.845-10.837 29.312-17.152 6.784-5.76 14.208-13.184 21.803-20.821l204.075-204.032c7.595-7.637 15.019-15.019 20.779-21.845 6.315-7.424 13.141-16.896 17.152-29.269 5.589-17.152 5.589-35.584 0-52.736-4.011-12.373-10.837-21.845-17.152-29.312-5.76-6.784-13.184-14.208-20.779-21.803l-33.408-33.365c-7.595-7.637-15.019-15.061-21.803-20.821-7.467-6.315-16.939-13.141-29.312-17.152-12.587-4.096-25.899-5.163-38.869-3.243l-44.416-222.165c-2.347-11.904-5.248-26.88-12.971-39.765-6.656-11.179-15.787-20.651-26.667-27.733-12.587-8.235-27.392-11.733-39.211-14.549l-482.048-141.909z" />
<glyph unicode="&#xe930;" glyph-name="pen-tool-01" d="M41.813 767.189c-11.136 37.803-16.683 56.747-12.373 64.555 3.755 6.741 10.795 10.923 18.517 10.965 8.917 0.085 22.869-13.867 50.731-41.771l288.213-288.171c-1.92-7.040-2.901-14.464-2.901-22.101 0-47.104 38.187-85.333 85.333-85.333 47.104 0 85.333 38.229 85.333 85.333 0 47.147-38.229 85.333-85.333 85.333-7.637 0-15.061-0.981-22.101-2.901l-288.171 288.213c-27.904 27.861-41.856 41.813-41.771 50.731 0.043 7.723 4.224 14.763 10.965 18.517 7.808 4.309 26.752-1.237 64.555-12.373l482.048-141.909c11.819-2.816 26.667-6.315 39.253-14.549 10.88-7.083 20.011-16.555 26.667-27.733 7.68-12.885 10.624-27.861 12.971-39.765l44.416-222.123c12.971 1.92 26.283 0.811 38.869-3.285 12.373-4.011 21.845-10.795 29.269-17.152 6.827-5.76 14.208-13.184 21.845-20.779l33.365-33.408c7.637-7.595 15.061-15.019 20.821-21.803 6.315-7.467 13.141-16.939 17.152-29.312 5.547-17.109 5.547-35.584 0-52.736-4.011-12.331-10.837-21.803-17.152-29.269-5.76-6.784-13.184-14.208-20.821-21.845l-204.032-204.032c-7.637-7.595-15.019-15.019-21.845-20.779-7.424-6.357-16.896-13.141-29.269-17.195-17.152-5.547-35.584-5.547-52.736 0-12.373 4.053-21.845 10.837-29.312 17.195-6.784 5.76-14.165 13.184-21.803 20.779l-33.365 33.365c-7.637 7.637-15.061 15.061-20.821 21.845-6.315 7.467-13.141 16.939-17.152 29.269-4.096 12.587-5.163 25.899-3.243 38.869l-222.165 44.416c-11.904 2.347-26.88 5.291-39.765 12.971-11.179 6.656-20.651 15.787-27.733 26.667-8.235 12.587-11.733 27.435-14.549 39.253l-141.909 482.048z" />
<glyph unicode="&#xe931;" glyph-name="paragraph-wrap" d="M128 746.667c-23.552 0-42.667-19.115-42.667-42.667s19.115-42.667 42.667-42.667h768c23.552 0 42.667 19.115 42.667 42.667s-19.115 42.667-42.667 42.667h-768zM128 490.667c-23.552 0-42.667-19.115-42.667-42.667s19.115-42.667 42.667-42.667h640c22.613 0 44.331-9.003 60.331-25.003s25.003-37.717 25.003-60.331c0-22.613-9.003-44.331-25.003-60.331s-37.717-25.003-60.331-25.003h-67.669l12.501 12.501c16.683 16.64 16.683 43.691 0 60.331-16.64 16.683-43.691 16.683-60.331 0l-85.333-85.333c-16.683-16.64-16.683-43.691 0-60.331l85.333-85.333c16.64-16.683 43.691-16.683 60.331 0 16.683 16.64 16.683 43.691 0 60.331l-12.501 12.501h67.669c45.269 0 88.661 17.963 120.661 50.005 32.043 32 50.005 75.392 50.005 120.661s-17.963 88.661-50.005 120.661c-32 32.043-75.392 50.005-120.661 50.005h-640zM128 234.667c-23.552 0-42.667-19.115-42.667-42.667s19.115-42.667 42.667-42.667h298.667c23.552 0 42.667 19.115 42.667 42.667s-19.115 42.667-42.667 42.667h-298.667z" />
<glyph unicode="&#xe932;" glyph-name="paragraph-spacing" d="M225.835 819.499c16.64 16.683 43.691 16.683 60.331 0l128-128c16.683-16.64 16.683-43.691 0-60.331-16.64-16.683-43.691-16.683-60.331 0l-55.168 55.168v-476.672l55.168 55.168c16.64 16.683 43.691 16.683 60.331 0 16.683-16.64 16.683-43.691 0-60.331l-128-128c-16.64-16.683-43.691-16.683-60.331 0l-128 128c-16.683 16.64-16.683 43.691 0 60.331 16.64 16.683 43.691 16.683 60.331 0l55.168-55.168v476.672l-55.168-55.168c-16.64-16.683-43.691-16.683-60.331 0-16.683 16.64-16.683 43.691 0 60.331l128 128zM512 704c0 23.552 19.115 42.667 42.667 42.667h341.333c23.552 0 42.667-19.115 42.667-42.667s-19.115-42.667-42.667-42.667h-341.333c-23.552 0-42.667 19.115-42.667 42.667zM512 533.333c0 23.552 19.115 42.667 42.667 42.667h341.333c23.552 0 42.667-19.115 42.667-42.667s-19.115-42.667-42.667-42.667h-341.333c-23.552 0-42.667 19.115-42.667 42.667zM554.667 405.333c-23.552 0-42.667-19.115-42.667-42.667s19.115-42.667 42.667-42.667h341.333c23.552 0 42.667 19.115 42.667 42.667s-19.115 42.667-42.667 42.667h-341.333zM512 192c0 23.552 19.115 42.667 42.667 42.667h341.333c23.552 0 42.667-19.115 42.667-42.667s-19.115-42.667-42.667-42.667h-341.333c-23.552 0-42.667 19.115-42.667 42.667z" />
<glyph unicode="&#xe933;" glyph-name="palette" d="M42.667 448c0 259.2 210.133 469.333 469.333 469.333s469.333-210.133 469.333-469.333c0-94.251-76.416-170.667-170.667-170.667h-21.333c-21.163 0-27.605-0.085-32.469-0.725-38.315-5.035-68.437-35.157-73.472-73.472-0.64-4.864-0.725-11.307-0.725-32.469v-21.333c0-94.251-76.416-170.667-170.667-170.667-259.2 0-469.333 210.133-469.333 469.333zM597.333 618.667c0-47.147 38.187-85.333 85.333-85.333s85.333 38.187 85.333 85.333c0 47.147-38.187 85.333-85.333 85.333s-85.333-38.187-85.333-85.333zM213.333 448c0-47.147 38.187-85.333 85.333-85.333s85.333 38.187 85.333 85.333c0 47.147-38.187 85.333-85.333 85.333s-85.333-38.187-85.333-85.333zM426.667 746.667c-47.147 0-85.333-38.187-85.333-85.333s38.187-85.333 85.333-85.333c47.147 0 85.333 38.187 85.333 85.333s-38.187 85.333-85.333 85.333z" />
<glyph unicode="&#xe934;" glyph-name="paint" d="M478.165 904.832l42.197-42.155c0.128-0.171 0.299-0.341 0.469-0.512l379.349-379.349c7.637-7.637 15.061-15.019 20.821-21.845 6.315-7.424 13.141-16.896 17.152-29.269 5.547-17.152 5.547-35.584 0-52.736-4.011-12.373-10.837-21.845-17.152-29.312-5.76-6.784-13.184-14.208-20.821-21.803l-235.776-235.776c-24.277-24.32-44.331-44.331-61.995-59.349-18.347-15.573-36.907-28.16-59.008-35.371-34.261-11.136-71.211-11.136-105.472 0-22.101 7.211-40.661 19.797-59.008 35.371-17.664 15.019-37.717 35.029-61.995 59.349l-139.52 139.52c-24.277 24.277-44.331 44.331-59.349 61.995-15.573 18.347-28.16 36.907-35.371 59.008-11.136 34.261-11.136 71.211 0 105.472 7.211 22.101 19.797 40.661 35.371 59.008 15.019 17.664 35.072 37.717 59.349 61.995l252.928 252.928-12.501 12.501c-16.683 16.64-16.683 43.648 0 60.331 16.64 16.64 43.691 16.64 60.331 0zM490.667 771.669l-251.691-251.691c-25.813-25.856-43.392-43.435-55.851-58.112-4.523-5.333-8.021-9.899-10.752-13.867h641.963z" />
<glyph unicode="&#xe935;" glyph-name="paint-pour" d="M371.499 904.832l336.683-336.683c7.637-7.637 15.019-15.019 20.821-21.845 6.315-7.424 13.099-16.896 17.152-29.269 5.547-17.152 5.547-35.584 0-52.736-4.053-12.373-10.837-21.845-17.152-29.269-5.803-6.827-13.184-14.208-20.821-21.845l-198.656-198.656c-15.915-15.872-29.611-29.611-41.813-39.979-12.928-10.965-26.923-20.651-44.16-26.283-25.728-8.363-53.419-8.363-79.104 0-17.237 5.632-31.275 15.317-44.16 26.283-12.245 10.368-25.941 24.107-41.856 39.979l-150.571 150.571c-15.915 15.915-29.611 29.653-39.979 41.856-10.965 12.928-20.693 26.923-26.283 44.16-8.363 25.685-8.363 53.419 0 79.104 5.589 17.237 15.317 31.232 26.283 44.16 10.368 12.203 24.064 25.941 39.979 41.856l215.765 215.765-12.459 12.501c-16.683 16.64-16.683 43.691 0 60.331 16.64 16.683 43.648 16.683 60.331 0zM384 771.669l-214.613-214.613c-9.515-9.515-17.195-17.195-23.467-23.723h476.373zM853.333 448c10.709 0 21.376-4.011 29.611-11.947 1.365-1.28 2.688-2.603 4.011-3.925 2.56-2.517 6.187-6.144 10.453-10.581 8.533-8.875 20.011-21.333 31.616-35.541 11.477-14.037 23.808-30.677 33.493-47.872 9.003-16 18.816-37.803 18.816-60.8 0-70.699-57.301-128-128-128s-128 57.301-128 128c0 22.997 9.771 44.8 18.816 60.8 9.685 17.195 21.973 33.835 33.451 47.872 11.605 14.208 23.125 26.667 31.616 35.541 4.309 4.437 7.893 8.064 10.453 10.581 1.323 1.323 2.688 2.645 4.053 3.925 4.907 4.736 10.667 8.064 16.853 9.984 4.139 1.323 8.448 1.963 12.757 1.963zM85.333 64c-23.595 0-42.667-19.115-42.667-42.667s19.072-42.667 42.667-42.667h512c23.552 0 42.667 19.115 42.667 42.667s-19.115 42.667-42.667 42.667h-512z" />
<glyph unicode="&#xe936;" glyph-name="move" d="M542.165 904.832c-16.64 16.683-43.691 16.683-60.331 0l-128-128c-16.683-16.64-16.683-43.691 0-60.331 16.64-16.683 43.691-16.683 60.331 0l55.168 55.168v-281.003h-281.003l55.168 55.168c16.683 16.64 16.683 43.691 0 60.331-16.64 16.683-43.691 16.683-60.331 0l-128-128c-16.683-16.64-16.683-43.691 0-60.331l128-128c16.64-16.683 43.691-16.683 60.331 0 16.683 16.64 16.683 43.691 0 60.331l-55.168 55.168h281.003v-281.003l-55.168 55.168c-16.64 16.683-43.691 16.683-60.331 0-16.683-16.64-16.683-43.691 0-60.331l128-128c16.64-16.683 43.691-16.683 60.331 0l128 128c16.683 16.64 16.683 43.691 0 60.331-16.64 16.683-43.691 16.683-60.331 0l-55.168-55.168v281.003h281.003l-55.168-55.168c-16.683-16.64-16.683-43.691 0-60.331 16.64-16.683 43.691-16.683 60.331 0l128 128c16.683 16.64 16.683 43.691 0 60.331l-128 128c-16.64 16.683-43.691 16.683-60.331 0-16.683-16.64-16.683-43.691 0-60.331l55.168-55.168h-281.003v281.003l55.168-55.168c16.64-16.683 43.691-16.683 60.331 0 16.683 16.64 16.683 43.691 0 60.331l-128 128z" />
<glyph unicode="&#xe937;" glyph-name="microscope" d="M128 725.333c0 106.027 85.973 192 192 192 99.669 0 181.589-75.947 191.104-173.099 14.293 1.621 28.843 2.432 43.563 2.432 212.096 0 384-171.904 384-384 0-161.237-99.328-299.136-240-356.053-21.845-8.875-46.677 1.664-55.552 23.509-8.832 21.845 1.707 46.72 23.552 55.552 109.525 44.373 186.667 151.723 186.667 276.992 0 164.949-133.717 298.667-298.667 298.667-14.507 0-28.757-1.024-42.667-3.029v-242.901c20.267-18.133 34.688-42.624 40.235-70.443 5.589-28.117 5.589-64.384 0-92.587-10.112-50.773-49.792-90.496-100.565-100.565-12.501-2.517-26.496-2.475-42.709-2.475h-177.877c-16.256 0-30.208-0.043-42.709 2.475-50.773 10.069-90.453 49.792-100.565 100.565-5.589 28.075-5.632 64.384 0 92.587 5.547 27.819 19.925 52.309 40.192 70.443zM128 64c-23.552 0-42.667-19.115-42.667-42.667s19.115-42.667 42.667-42.667h384c23.595 0 42.667 19.115 42.667 42.667s-19.072 42.667-42.667 42.667h-384z" />
<glyph unicode="&#xe938;" glyph-name="magic-wand-02" d="M682.667 874.667c0 23.552-19.115 42.667-42.667 42.667s-42.667-19.115-42.667-42.667v-85.333c0-23.552 19.115-42.667 42.667-42.667s42.667 19.115 42.667 42.667v85.333zM682.667 362.667c0 23.552-19.115 42.667-42.667 42.667s-42.667-19.115-42.667-42.667v-85.333c0-23.552 19.115-42.667 42.667-42.667s42.667 19.115 42.667 42.667v85.333zM298.667 576c0 23.552 19.115 42.667 42.667 42.667h85.333c23.552 0 42.667-19.115 42.667-42.667s-19.115-42.667-42.667-42.667h-85.333c-23.552 0-42.667 19.115-42.667 42.667zM853.333 618.667c-23.552 0-42.667-19.115-42.667-42.667s19.115-42.667 42.667-42.667h85.333c23.552 0 42.667 19.115 42.667 42.667s-19.115 42.667-42.667 42.667h-85.333zM729.301 486.699c16.64 16.683 43.691 16.683 60.331 0l51.2-51.2c16.683-16.64 16.683-43.648 0-60.331-16.64-16.64-43.691-16.64-60.331 0l-51.2 51.2c-16.683 16.683-16.683 43.691 0 60.331zM840.832 716.501c16.683 16.64 16.683 43.691 0 60.331-16.64 16.683-43.691 16.683-60.331 0l-51.2-51.2c-16.683-16.64-16.683-43.691 0-60.331 16.64-16.683 43.691-16.683 60.331 0l51.2 51.2zM439.168 776.832c16.64 16.683 43.691 16.683 60.331 0l51.2-51.2c16.683-16.64 16.683-43.691 0-60.331-16.64-16.683-43.691-16.683-60.331 0l-51.2 51.2c-16.683 16.64-16.683 43.691 0 60.331zM542.165 417.835c16.683 16.64 16.683 43.691 0 60.331-16.64 16.683-43.691 16.683-60.331 0l-384-384c-16.683-16.64-16.683-43.691 0-60.331 16.64-16.683 43.691-16.683 60.331 0l384 384z" />
<glyph unicode="&#xe939;" glyph-name="magic-wand-01" d="M597.76 874.667c0 23.552 19.115 42.667 42.667 42.667s42.667-19.115 42.667-42.667v-64c0-23.552-19.115-42.667-42.667-42.667s-42.667 19.115-42.667 42.667v64zM823.595 819.499c16.64 16.683 43.691 16.683 60.331 0 16.683-16.64 16.683-43.691 0-60.331l-45.227-45.269c-16.683-16.64-43.691-16.64-60.373 0-16.64 16.683-16.64 43.691 0 60.331l45.269 45.269zM778.325 435.499c-16.64-16.64-16.64-43.691 0-60.331l45.269-45.269c16.64-16.64 43.691-16.64 60.331 0 16.683 16.683 16.683 43.691 0 60.331l-45.227 45.269c-16.683 16.683-43.691 16.683-60.373 0zM394.325 759.168c-16.64 16.64-16.64 43.691 0 60.331 16.683 16.683 43.691 16.683 60.331 0l45.269-45.269c16.683-16.64 16.683-43.648 0-60.331-16.64-16.64-43.691-16.64-60.331 0l-45.269 45.269zM939.093 618.667h-64c-23.552 0-42.667-19.115-42.667-42.667s19.115-42.667 42.667-42.667h64c23.552 0 42.667 19.115 42.667 42.667s-19.115 42.667-42.667 42.667zM549.632 660.821c17.109 5.589 35.584 5.589 52.736 0 12.373-4.011 21.845-10.837 29.269-17.152 6.827-5.76 14.208-13.184 21.845-20.821l33.365-33.365c7.637-7.595 15.019-15.019 20.821-21.803 6.315-7.467 13.141-16.939 17.152-29.312 5.547-17.109 5.547-35.584 0-52.736-4.011-12.373-10.837-21.845-17.152-29.269-5.803-6.827-13.184-14.208-20.821-21.845l-396.032-396.032c-7.637-7.637-15.019-15.061-21.845-20.821-7.467-6.315-16.896-13.141-29.269-17.152-17.152-5.547-35.584-5.547-52.736 0-12.373 4.011-21.845 10.837-29.312 17.152-6.784 5.76-14.208 13.184-21.803 20.821l-33.365 33.365c-7.637 7.637-15.061 15.061-20.821 21.845-6.315 7.467-13.141 16.896-17.152 29.269-5.589 17.152-5.589 35.584 0 52.736 4.011 12.373 10.837 21.845 17.152 29.312 5.76 6.784 13.184 14.208 20.821 21.803l396.032 396.032c7.595 7.637 15.019 15.061 21.803 20.821 7.467 6.315 16.939 13.141 29.312 17.152zM547.797 433.152c4.309-1.408 8.917-1.408 13.227 0 4.864 1.579 9.088 5.803 17.536 14.293l40.32 40.405c8.448 8.448 12.629 12.672 14.208 17.579 1.408 4.267 1.408 8.875 0 13.141-1.579 4.907-5.803 9.088-14.251 17.536l-18.731 18.773c-8.448 8.448-12.672 12.629-17.536 14.251-4.267 1.365-8.875 1.365-13.184 0-4.864-1.579-9.088-5.803-17.536-14.251l-40.405-40.32c-8.491-8.448-12.715-12.672-14.293-17.536-1.408-4.309-1.408-8.917 0-13.184 1.579-4.907 5.803-9.131 14.251-17.579l18.859-18.859c8.448-8.448 12.672-12.672 17.536-14.251z" />
<glyph unicode="&#xe93a;" glyph-name="line-height" d="M128 874.667c-23.552 0-42.667-19.115-42.667-42.667s19.115-42.667 42.667-42.667h768c23.552 0 42.667 19.115 42.667 42.667s-19.115 42.667-42.667 42.667h-768zM540.288 709.845c15.659-7.723 23.936-21.248 27.947-28.288 4.267-7.552 8.661-17.237 13.056-26.88l182.869-402.347c9.771-21.461 0.299-46.763-21.163-56.533-21.461-9.728-46.763-0.256-56.491 21.205l-66.219 145.664h-216.576l-66.219-145.664c-9.728-21.461-35.029-30.933-56.491-21.205-21.461 9.771-30.933 35.072-21.163 56.533l182.869 402.347c4.395 9.643 8.789 19.328 13.056 26.88 4.011 7.040 12.288 20.565 27.947 28.288 17.835 8.789 38.741 8.789 56.576 0zM581.504 448l-69.504 152.875-69.504-152.875zM85.333 64c0 23.552 19.115 42.667 42.667 42.667h768c23.552 0 42.667-19.115 42.667-42.667s-19.115-42.667-42.667-42.667h-768c-23.552 0-42.667 19.115-42.667 42.667z" />
<glyph unicode="&#xe93b;" glyph-name="letter-spacing-02" d="M256 832c0 23.552 19.115 42.667 42.667 42.667h426.667c23.552 0 42.667-19.115 42.667-42.667s-19.115-42.667-42.667-42.667h-170.667v-426.667c0-23.552-19.115-42.667-42.667-42.667s-42.667 19.115-42.667 42.667v426.667h-170.667c-23.552 0-42.667 19.115-42.667 42.667zM780.501 350.165c16.64 16.683 43.691 16.683 60.331 0l140.501-158.165c0-11.435-4.523-21.845-11.861-29.525l-128.64-128.64c-16.64-16.683-43.691-16.683-60.331 0-16.683 16.64-16.683 43.691 0 60.331l55.168 55.168h-647.339l55.168-55.168c16.683-16.64 16.683-43.691 0-60.331-16.64-16.683-43.691-16.683-60.331 0l-128 128c-4.096 4.096-7.168 8.789-9.259 13.824s-3.243 10.539-3.243 16.341c0 5.803 1.152 11.307 3.243 16.341s5.163 9.728 9.259 13.824l128 128c16.64 16.683 43.691 16.683 60.331 0 16.683-16.64 16.683-43.691 0-60.331l-55.168-55.168h647.339l-55.168 55.168c-16.683 16.64-16.683 43.691 0 60.331z" />
<glyph unicode="&#xe93c;" glyph-name="letter-spacing-01" d="M170.667 832c0 23.552-19.115 42.667-42.667 42.667s-42.667-19.115-42.667-42.667v-768c0-23.552 19.115-42.667 42.667-42.667s42.667 19.115 42.667 42.667v768zM938.667 832c0 23.552-19.115 42.667-42.667 42.667s-42.667-19.115-42.667-42.667v-768c0-23.552 19.115-42.667 42.667-42.667s42.667 19.115 42.667 42.667v768zM403.712 362.667l-66.219-145.664c-9.728-21.461-35.029-30.933-56.491-21.205-21.461 9.771-30.933 35.072-21.163 56.533l182.869 402.347c4.395 9.643 8.789 19.328 13.056 26.88 4.011 7.040 12.288 20.565 27.947 28.288 17.835 8.789 38.741 8.789 56.576 0 15.659-7.723 23.936-21.248 27.947-28.288 4.267-7.552 8.661-17.237 13.056-26.88l182.869-402.347c9.771-21.461 0.299-46.763-21.163-56.533-21.461-9.728-46.763-0.256-56.491 21.205l-66.219 145.664zM581.504 448l-69.504 152.875-69.504-152.875z" />
<glyph unicode="&#xe93d;" glyph-name="left-indent-02" d="M207.019 868.736c-7.723 5.803-15.701 11.776-22.699 16.085-6.827 4.224-19.755 11.52-36.309 11.179-19.2-0.427-37.205-9.429-49.067-24.533-10.197-13.056-12.16-27.776-12.885-35.755-0.725-8.192-0.725-18.133-0.725-27.819v-250.453c0-9.685 0-19.627 0.725-27.819 0.725-7.979 2.688-22.699 12.885-35.755 11.861-15.104 29.867-24.107 49.067-24.533 16.555-0.341 29.483 6.955 36.309 11.179 6.997 4.309 14.976 10.283 22.699 16.085l167.125 125.355c5.333 3.968 11.349 8.491 16.171 12.8 5.291 4.779 13.099 12.757 17.792 24.704 5.803 14.933 5.803 31.488 0 46.421-4.693 11.947-12.501 19.925-17.792 24.704-4.821 4.309-10.837 8.832-16.171 12.8l-167.125 125.355zM512 832c-23.552 0-42.667-19.115-42.667-42.667s19.115-42.667 42.667-42.667h384c23.552 0 42.667 19.115 42.667 42.667s-19.115 42.667-42.667 42.667h-384zM512 608c-23.552 0-42.667-19.115-42.667-42.667s19.115-42.667 42.667-42.667h384c23.552 0 42.667 19.115 42.667 42.667s-19.115 42.667-42.667 42.667h-384zM85.333 330.667c0 23.552 19.115 42.667 42.667 42.667h768c23.552 0 42.667-19.115 42.667-42.667s-19.115-42.667-42.667-42.667h-768c-23.552 0-42.667 19.115-42.667 42.667zM128 149.333c-23.552 0-42.667-19.115-42.667-42.667s19.115-42.667 42.667-42.667h768c23.552 0 42.667 19.115 42.667 42.667s-19.115 42.667-42.667 42.667h-768z" />
<glyph unicode="&#xe93e;" glyph-name="left-indent-01" d="M128 832c-23.552 0-42.667-19.115-42.667-42.667s19.115-42.667 42.667-42.667h768c23.552 0 42.667 19.115 42.667 42.667s-19.115 42.667-42.667 42.667h-768zM512 608c-23.552 0-42.667-19.115-42.667-42.667s19.115-42.667 42.667-42.667h384c23.552 0 42.667 19.115 42.667 42.667s-19.115 42.667-42.667 42.667h-384zM469.333 330.667c0 23.552 19.115 42.667 42.667 42.667h384c23.552 0 42.667-19.115 42.667-42.667s-19.115-42.667-42.667-42.667h-384c-23.552 0-42.667 19.115-42.667 42.667zM128 149.333c-23.552 0-42.667-19.115-42.667-42.667s19.115-42.667 42.667-42.667h768c23.552 0 42.667 19.115 42.667 42.667s-19.115 42.667-42.667 42.667h-768zM207.019 629.803c-7.723 5.803-15.701 11.776-22.699 16.085-6.827 4.224-19.755 11.52-36.309 11.179-19.2-0.427-37.205-9.429-49.067-24.533-10.197-13.056-12.16-27.776-12.885-35.755-0.725-8.192-0.725-18.133-0.725-27.819v-250.453c0-9.685 0-19.627 0.725-27.819 0.725-7.979 2.688-22.699 12.885-35.755 11.861-15.104 29.867-24.107 49.067-24.533 16.555-0.341 29.483 6.955 36.309 11.179 6.997 4.309 14.976 10.283 22.699 16.085l167.125 125.355c5.333 3.968 11.349 8.491 16.171 12.8 5.291 4.779 13.099 12.715 17.792 24.704 5.803 14.933 5.803 31.488 0 46.421-4.693 11.947-12.501 19.925-17.792 24.704-4.821 4.309-10.837 8.832-16.171 12.8l-167.125 125.355z" />
<glyph unicode="&#xe93f;" glyph-name="italic-square" d="M692.949 874.667v0c34.347 0 62.72 0 85.803-1.877 23.979-1.963 46.037-6.187 66.731-16.725 32.128-16.341 58.24-42.453 74.581-74.581 10.539-20.693 14.763-42.752 16.725-66.731 1.877-23.083 1.877-51.456 1.877-85.803v-361.899c0-34.347 0-62.72-1.877-85.803-1.963-23.979-6.187-46.037-16.725-66.731-16.341-32.128-42.453-58.24-74.581-74.581-20.693-10.539-42.752-14.763-66.731-16.725-23.083-1.877-51.456-1.877-85.803-1.877h-361.899c-34.347 0-62.72 0-85.803 1.877-23.979 1.963-46.037 6.187-66.731 16.725-32.128 16.341-58.24 42.453-74.581 74.581-10.539 20.693-14.763 42.752-16.725 66.731-1.877 23.083-1.877 51.456-1.877 85.803v361.899c0 34.347 0 62.72 1.877 85.803 1.963 23.979 6.187 46.037 16.725 66.731 16.341 32.128 42.453 58.24 74.581 74.581 20.693 10.539 42.752 14.763 66.731 16.725 23.083 1.877 51.456 1.877 85.803 1.877h361.899zM636.971 645.504c8.747 21.888-1.92 46.72-23.808 55.467-21.845 8.747-46.677-1.92-55.467-23.765l-170.624-426.667c-8.789-21.888 1.877-46.72 23.765-55.467 21.845-8.747 46.677 1.877 55.467 23.765z" />
<glyph unicode="&#xe940;" glyph-name="italic-02" d="M279.765 149.333l224 597.333h-98.432c-23.552 0-42.667 19.115-42.667 42.667s19.115 42.667 42.667 42.667h426.667c23.552 0 42.667-19.115 42.667-42.667s-19.115-42.667-42.667-42.667h-87.765l-224-597.333h98.432c23.552 0 42.667-19.115 42.667-42.667s-19.115-42.667-42.667-42.667h-426.667c-23.552 0-42.667 19.115-42.667 42.667s19.115 42.667 42.667 42.667z" />
<glyph unicode="&#xe941;" glyph-name="italic-01" d="M641.323 832h169.344c23.552 0 42.667-19.115 42.667-42.667s-19.115-42.667-42.667-42.667h-141.099l-224-597.333h151.765c23.552 0 42.667-19.115 42.667-42.667s-19.115-42.667-42.667-42.667h-212.907c-0.299 0-0.597 0-0.853 0h-170.24c-23.552 0-42.667 19.115-42.667 42.667s19.115 42.667 42.667 42.667h141.099l224 597.333h-151.765c-23.552 0-42.667 19.115-42.667 42.667s19.115 42.667 42.667 42.667h212.011c0.896 0.043 1.792 0.043 2.645 0z" />
<glyph unicode="&#xe942;" glyph-name="image-indent-right" d="M128 832c-23.552 0-42.667-19.115-42.667-42.667s19.115-42.667 42.667-42.667h768c23.552 0 42.667 19.115 42.667 42.667s-19.115 42.667-42.667 42.667h-768zM128 149.333c-23.552 0-42.667-19.115-42.667-42.667s19.115-42.667 42.667-42.667h768c23.552 0 42.667 19.115 42.667 42.667s-19.115 42.667-42.667 42.667h-768zM85.333 565.333c0 23.552 19.115 42.667 42.667 42.667h256c23.552 0 42.667-19.115 42.667-42.667s-19.115-42.667-42.667-42.667h-256c-23.552 0-42.667 19.115-42.667 42.667zM128 373.333c-23.552 0-42.667-19.115-42.667-42.667s19.115-42.667 42.667-42.667h256c23.552 0 42.667 19.115 42.667 42.667s-19.115 42.667-42.667 42.667h-256zM621.568 661.333c-10.752 0-21.248 0-30.123-0.725-9.771-0.811-21.291-2.688-32.853-8.576-16.043-8.192-29.099-21.248-37.291-37.291-5.888-11.563-7.765-23.083-8.576-32.853-0.725-8.875-0.725-19.371-0.725-30.123v-207.531c0-10.752 0-21.248 0.725-30.123 0.811-9.771 2.688-21.291 8.576-32.853 8.192-16.043 21.248-29.099 37.291-37.291 11.563-5.888 23.083-7.765 32.853-8.576 8.875-0.725 19.371-0.725 30.123-0.725h207.531c10.752 0 21.248 0 30.123 0.725 9.771 0.811 21.291 2.688 32.853 8.576 16.043 8.192 29.099 21.248 37.291 37.291 5.888 11.563 7.765 23.083 8.576 32.853 0.725 8.875 0.725 19.371 0.725 30.123v207.531c0 10.752 0 21.248-0.725 30.123-0.811 9.771-2.688 21.291-8.576 32.853-8.192 16.043-21.248 29.099-37.291 37.291-11.563 5.888-23.083 7.765-32.853 8.576-8.875 0.725-19.371 0.725-30.123 0.725h-207.531z" />
<glyph unicode="&#xe943;" glyph-name="image-indent-left" d="M128 832c-23.552 0-42.667-19.115-42.667-42.667s19.115-42.667 42.667-42.667h768c23.552 0 42.667 19.115 42.667 42.667s-19.115 42.667-42.667 42.667h-768zM640 608c-23.552 0-42.667-19.115-42.667-42.667s19.115-42.667 42.667-42.667h256c23.552 0 42.667 19.115 42.667 42.667s-19.115 42.667-42.667 42.667h-256zM597.333 330.667c0 23.552 19.115 42.667 42.667 42.667h256c23.552 0 42.667-19.115 42.667-42.667s-19.115-42.667-42.667-42.667h-256c-23.552 0-42.667 19.115-42.667 42.667zM128 149.333c-23.552 0-42.667-19.115-42.667-42.667s19.115-42.667 42.667-42.667h768c23.552 0 42.667 19.115 42.667 42.667s-19.115 42.667-42.667 42.667h-768zM194.901 661.333c-10.752 0-21.248 0-30.123-0.725-9.771-0.811-21.291-2.688-32.853-8.576-16.043-8.192-29.099-21.248-37.291-37.291-5.888-11.563-7.765-23.083-8.576-32.853-0.725-8.875-0.725-19.371-0.725-30.123v-207.531c0-10.752 0-21.248 0.725-30.123 0.811-9.771 2.688-21.291 8.576-32.853 8.192-16.043 21.248-29.099 37.291-37.291 11.563-5.888 23.083-7.765 32.853-8.576 8.875-0.725 19.371-0.725 30.123-0.725h207.531c10.752 0 21.248 0 30.123 0.725 9.771 0.811 21.291 2.688 32.853 8.576 16.043 8.192 29.099 21.248 37.291 37.291 5.888 11.563 7.765 23.083 8.576 32.853 0.725 8.875 0.725 19.371 0.725 30.123v207.531c0 10.752 0 21.248-0.725 30.123-0.811 9.771-2.688 21.291-8.576 32.853-8.192 16.043-21.248 29.099-37.291 37.291-11.563 5.888-23.083 7.765-32.853 8.576-8.875 0.725-19.371 0.725-30.123 0.725h-207.531z" />
<glyph unicode="&#xe944;" glyph-name="heading-square" d="M692.949 874.667v0c34.347 0 62.72 0 85.803-1.877 23.979-1.963 46.037-6.187 66.731-16.725 32.128-16.341 58.24-42.453 74.581-74.581 10.539-20.693 14.763-42.752 16.725-66.731 1.877-23.083 1.877-51.456 1.877-85.803v-361.899c0-34.347 0-62.72-1.877-85.803-1.963-23.979-6.187-46.037-16.725-66.731-16.341-32.128-42.453-58.24-74.581-74.581-20.693-10.539-42.752-14.763-66.731-16.725-23.083-1.877-51.456-1.877-85.803-1.877h-361.899c-34.347 0-62.72 0-85.803 1.877-23.979 1.963-46.037 6.187-66.731 16.725-32.128 16.341-58.24 42.453-74.581 74.581-10.539 20.693-14.763 42.752-16.725 66.731-1.877 23.083-1.877 51.456-1.877 85.803v361.899c0 34.347 0 62.72 1.877 85.803 1.963 23.979 6.187 46.037 16.725 66.731 16.341 32.128 42.453 58.24 74.581 74.581 20.693 10.539 42.752 14.763 66.731 16.725 23.083 1.877 51.456 1.877 85.803 1.877h361.899zM384 661.333c0 23.552-19.115 42.667-42.667 42.667s-42.667-19.115-42.667-42.667v-426.667c0-23.552 19.115-42.667 42.667-42.667s42.667 19.115 42.667 42.667v170.667h256v-170.667c0-23.552 19.115-42.667 42.667-42.667s42.667 19.115 42.667 42.667v426.667c0 23.552-19.115 42.667-42.667 42.667s-42.667-19.115-42.667-42.667v-170.667h-256z" />
<glyph unicode="&#xe945;" glyph-name="heading-02" d="M170.667 832h320c23.552 0 42.667-19.115 42.667-42.667s-19.115-42.667-42.667-42.667h-42.667v-256h277.333v256h-42.667c-23.552 0-42.667 19.115-42.667 42.667s19.115 42.667 42.667 42.667h170.667c23.552 0 42.667-19.115 42.667-42.667s-19.115-42.667-42.667-42.667h-42.667v-597.333h42.667c23.552 0 42.667-19.115 42.667-42.667s-19.115-42.667-42.667-42.667h-170.667c-23.552 0-42.667 19.115-42.667 42.667s19.115 42.667 42.667 42.667h42.667v256h-277.333v-256h42.667c23.552 0 42.667-19.115 42.667-42.667s-19.115-42.667-42.667-42.667h-320c-23.552 0-42.667 19.115-42.667 42.667s19.115 42.667 42.667 42.667h42.667v597.333h-42.667c-23.552 0-42.667 19.115-42.667 42.667s19.115 42.667 42.667 42.667z" />
<glyph unicode="&#xe946;" glyph-name="heading-01" d="M170.667 832c-23.552 0-42.667-19.115-42.667-42.667s19.115-42.667 42.667-42.667h42.667v-597.333h-42.667c-23.552 0-42.667-19.115-42.667-42.667s19.115-42.667 42.667-42.667h170.667c23.552 0 42.667 19.115 42.667 42.667s-19.115 42.667-42.667 42.667h-42.667v256h426.667v-256h-42.667c-23.552 0-42.667-19.115-42.667-42.667s19.115-42.667 42.667-42.667h170.667c23.552 0 42.667 19.115 42.667 42.667s-19.115 42.667-42.667 42.667h-42.667v597.333h42.667c23.552 0 42.667 19.115 42.667 42.667s-19.115 42.667-42.667 42.667h-170.667c-23.552 0-42.667-19.115-42.667-42.667s19.115-42.667 42.667-42.667h42.667v-256h-426.667v256h42.667c23.552 0 42.667 19.115 42.667 42.667s-19.115 42.667-42.667 42.667h-170.667z" />
<glyph unicode="&#xe947;" glyph-name="hand" d="M611.669 860.715c13.995 5.931 29.355 9.216 45.397 9.216 62.805 0 115.2-50.133 115.2-113.792v-32.299c9.557 2.517 19.584 3.883 29.867 3.883 62.805 0 115.2-50.176 115.2-113.792v-237.056c0-220.715-182.272-398.208-405.333-398.208s-405.333 177.493-405.333 398.208v94.848c0 63.616 52.395 113.749 115.2 113.749 10.283 0 20.309-1.323 29.867-3.883v174.549c0 63.659 52.395 113.792 115.2 113.792 16.043 0 31.403-3.285 45.397-9.216 20.096 34.048 57.515 56.619 99.669 56.619s79.573-22.571 99.669-56.619zM512 832c-17.28 0-29.867-13.525-29.867-28.459v-308.139c0-23.552-19.115-42.667-42.667-42.667s-42.667 19.115-42.667 42.667v260.736c0 14.933-12.587 28.459-29.867 28.459s-29.867-13.525-29.867-28.459v-402.944c0-23.552-19.115-42.667-42.667-42.667s-42.667 19.115-42.667 42.667v118.528c0 14.891-12.587 28.416-29.867 28.416s-29.867-13.525-29.867-28.416v-94.848c0-171.989 142.464-312.875 320-312.875s320 140.885 320 312.875v237.056c0 14.933-12.587 28.459-29.867 28.459s-29.867-13.525-29.867-28.459v-118.528c0-23.552-19.115-42.667-42.667-42.667s-42.667 19.115-42.667 42.667v260.736c0 14.933-12.587 28.459-29.867 28.459s-29.867-13.525-29.867-28.459v-260.736c0-23.552-19.115-42.667-42.667-42.667s-42.667 19.115-42.667 42.667v308.139c0 14.933-12.587 28.459-29.867 28.459z" />
<glyph unicode="&#xe948;" glyph-name="graduation-hat-02" d="M792.405 500.907c3.755-3.84 5.632-5.76 5.717-5.845 8.448-8.405 13.696-9.301 24.405-4.096 24.619 11.947 48.981 24.491 73.472 36.736v0.597l61.739 30.891c14.464 7.211 23.595 21.973 23.595 38.144s-9.131 30.933-23.595 38.144l-412.501 206.251c-3.968 2.048-12.203 6.272-21.419 7.979-7.808 1.451-15.829 1.451-23.637 0-9.216-1.707-17.451-5.931-21.419-7.979l-412.501-206.251c-14.464-7.211-23.595-21.973-23.595-38.144s9.131-30.933 23.595-38.144l415.189-208.213c11.221-5.589 16.811-8.405 22.699-9.515 5.205-0.981 10.496-0.981 15.701 0 5.888 1.109 11.477 3.925 22.699 9.515l121.899 60.971c19.627 9.771 29.397 14.677 32.555 21.333 2.773 5.76 2.773 12.459 0.043 18.261-3.157 6.656-12.928 11.563-32.512 21.419l-128.939 64.853c-21.077 10.539-29.611 36.181-19.115 57.259 10.539 21.077 36.181 29.611 57.259 19.072l195.797-97.877c4.864-2.389 14.976-7.296 22.869-15.36zM701.227 334.891c11.051 5.547 24.107-2.517 24.107-14.891 0-23.595 19.115-42.667 42.667-42.667s42.667 19.072 42.667 42.667v48.512c0 7.68 0 11.52 1.152 14.891 1.067 2.987 2.731 5.717 4.949 7.979 2.475 2.56 5.931 4.267 12.757 7.68l17.067 8.533c16.384 8.192 24.533 12.288 31.189 11.307 5.803-0.896 11.008-4.096 14.379-8.875 3.84-5.547 3.84-14.677 3.84-32.939v-116.181c0.043-12.203 0.128-27.52-4.949-41.728-4.395-12.288-11.52-23.381-20.864-32.512-10.795-10.496-24.747-16.853-35.84-21.888l-278.315-127.531c-8.107-3.755-18.304-8.448-29.44-10.368-9.643-1.707-19.541-1.707-29.184 0-11.136 1.92-21.333 6.613-29.44 10.368l-278.315 127.531c-11.093 5.035-25.045 11.392-35.84 21.888-9.344 9.131-16.469 20.224-20.864 32.512-5.077 14.208-4.992 29.525-4.949 41.728v116.181c0 18.261 0 27.392 3.84 32.939 3.371 4.779 8.576 7.979 14.379 8.875 6.656 0.981 14.805-3.115 31.189-11.307l301.355-150.699c3.968-2.005 12.203-6.229 21.419-7.936 7.808-1.493 15.829-1.493 23.637 0 9.216 1.707 17.451 5.931 21.419 7.936l155.989 77.995z" />
<glyph unicode="&#xe949;" glyph-name="graduation-hat-01" d="M957.739 559.189c14.464 7.211 23.595 21.973 23.595 38.144s-9.131 30.933-23.595 38.144l-412.501 206.251c-3.968 2.048-12.203 6.272-21.419 7.979-7.808 1.451-15.829 1.451-23.637 0-9.216-1.707-17.451-5.931-21.419-7.979l-412.501-206.251c-14.464-7.211-23.595-21.973-23.595-38.144s9.131-30.933 23.595-38.144l415.147-208.171c11.221-5.589 16.811-8.405 22.699-9.515 5.205-0.981 10.581-0.981 15.787 0 5.888 1.109 11.477 3.925 22.699 9.515l415.147 208.171zM853.205 355.627c0 18.304 0 27.477-3.883 32.981-3.371 4.821-8.533 8.021-14.336 8.875-6.656 0.981-14.848-3.115-31.232-11.307l-258.517-129.28c-3.968-2.005-12.203-6.229-21.419-7.936-7.808-1.493-15.829-1.493-23.637 0-9.216 1.707-17.451 5.931-21.419 7.936l-258.517 129.28c-16.384 8.192-24.576 12.288-31.232 11.307-5.803-0.853-11.008-4.053-14.336-8.875-3.883-5.504-3.883-14.677-3.883-32.981 0-27.349-0.043-54.656-0.128-82.005-0.043-11.776-0.128-26.581 4.651-40.405 4.139-11.947 10.88-22.869 19.712-31.872 10.24-10.453 23.509-17.024 34.048-22.272 78.677-39.083 157.227-78.293 235.648-117.803 8.661-4.352 19.541-9.856 31.531-12.117 10.411-1.92 21.077-1.92 31.488 0 11.989 2.261 22.869 7.765 31.531 12.117 78.421 39.509 156.928 78.848 235.648 117.803 10.539 5.248 23.808 11.819 34.048 22.272 8.832 9.003 15.573 19.925 19.712 31.872 4.779 13.824 4.693 28.629 4.651 40.405-0.085 27.349-0.128 54.656-0.128 82.005z" />
</font>
</defs>
</svg>
